<?xml version="1.0" standalone="no"?>
<!DOCTYPE svg PUBLIC "-//W3C//DTD SVG 1.1//EN" "http://www.w3.org/Graphics/SVG/1.1/DTD/svg11.dtd" >
<svg xmlns="http://www.w3.org/2000/svg" xmlns:xlink="http://www.w3.org/1999/xlink" version="1.1">
<metadata>
Created by FontForge 20201107 at Wed Jul  8 16:02:46 2020
 By 
Copyright 2010 The Raleway Project Authors (impallari@gmail.com), with Reserved Font Name "Raleway".
</metadata>
<defs>
<font id="Raleway-ExtraBold" horiz-adv-x="0" >
  <font-face 
    font-family="Raleway ExtraBold"
    font-weight="800"
    font-stretch="normal"
    units-per-em="1000"
    panose-1="0 0 0 0 0 0 0 0 0 0"
    ascent="800"
    descent="-200"
    x-height="525"
    cap-height="710"
    bbox="-196 -231 1385 1124"
    underline-thickness="50"
    underline-position="-125"
    unicode-range="U+000D-FB06"
  />
<missing-glyph horiz-adv-x="608" 
d="M558 29q0 -29 -33 -29h-448q-16 0 -21.5 6t-5.5 19v662q0 23 19 23h471q18 0 18 -21v-660zM506 74v568q0 18 -15 18h-373q-16 0 -16 -19v-570q0 -10 5 -15.5t18 -5.5h353q28 0 28 24zM478 28l-407 641l52 27l415 -663z" />
    <glyph glyph-name="f_f" unicode="ff" horiz-adv-x="665" 
d="M89 0v361h-67v121h67v17q0 60 23 106.5t65.5 73t99.5 26.5q37 0 74.5 -9.5t79.5 -27.5l-31 -122q-22 11 -46 17.5t-44 6.5q-15 0 -26.5 -5t-19 -13.5t-11.5 -20.5t-4 -26v-23h122v-121h-122v-361h-160zM364 0v361h-67v121h67v43q0 66 22.5 114t64 74.5t96.5 26.5
q33 0 67.5 -8t69.5 -23l-29 -120q-16 7 -36 11.5t-36 4.5q-29 0 -44 -18.5t-15 -55.5v-49h122v-121h-122v-361h-160z" />
    <glyph glyph-name="fi" unicode="fi" horiz-adv-x="593" 
d="M89 361h-67v121h67v43q0 47 16 86t45.5 68t71 45t93.5 16q38 0 73 -8.5t69 -24.5t68 -39l-62 -121q-29 27 -65.5 42.5t-72.5 15.5q-24 0 -41.5 -9.5t-26 -26.5t-8.5 -38v-49h290v-482h-160v361h-130v-361h-160v361z" />
    <glyph glyph-name="fl" unicode="fl" horiz-adv-x="685" 
d="M548 -8q-67 0 -106 35t-39 86v384q0 33 -5.5 57t-21.5 37.5t-47 13.5q-29 0 -46.5 -13t-25.5 -35t-8 -52v-23h79v-121h-79v-361h-160v361h-67v121h67v58q0 67 29 111.5t82 66.5t123 22q125 0 182.5 -58t57.5 -154v-335q0 -26 10.5 -42.5t32.5 -16.5q18 0 37 7t24 9
l20 -129q-4 -2 -26.5 -9.5t-52 -13.5t-60.5 -6z" />
    <glyph glyph-name="f_f_i" unicode="ffi" horiz-adv-x="868" 
d="M89 0v361h-67v121h67v17q0 60 23 106.5t65.5 73t99.5 26.5q37 0 74.5 -9.5t79.5 -27.5l-31 -122q-22 11 -46 17.5t-44 6.5q-15 0 -26.5 -5t-19 -13.5t-11.5 -20.5t-4 -26v-23h122v-121h-122v-361h-160zM364 361h-66v121h66v43q0 47 16 86t45.5 68t71.5 45t93 16
q38 0 73 -8.5t69 -24.5t68 -39l-62 -121q-29 27 -65.5 42.5t-71.5 15.5q-25 0 -42 -9.5t-26 -26.5t-9 -38v-49h290v-482h-160v361h-130v-361h-160v361z" />
    <glyph glyph-name="f_f_l" unicode="ffl" horiz-adv-x="960" 
d="M89 0v361h-67v121h67v17q0 60 23 106.5t65.5 73t99.5 26.5q37 0 74.5 -9.5t79.5 -27.5l-31 -122q-22 11 -46 17.5t-44 6.5q-15 0 -26.5 -5t-19 -13.5t-11.5 -20.5t-4 -26v-23h122v-121h-122v-361h-160zM823 -8q-68 0 -106.5 35t-38.5 86v384q0 33 -5.5 57t-21.5 37.5
t-47 13.5q-29 0 -46.5 -13t-25.5 -35t-8 -52v-23h79v-121h-79v-361h-160v361h-67v121h67v58q0 67 29 111.5t81.5 66.5t123.5 22q124 0 182 -58t58 -154v-335q0 -26 10 -42.5t32 -16.5q19 0 38 7t24 9l20 -129q-5 -2 -27 -9.5t-52 -13.5t-60 -6z" />
    <glyph glyph-name=".notdef" horiz-adv-x="608" 
d="M558 29q0 -29 -33 -29h-448q-16 0 -21.5 6t-5.5 19v662q0 23 19 23h471q18 0 18 -21v-660zM506 74v568q0 18 -15 18h-373q-16 0 -16 -19v-570q0 -10 5 -15.5t18 -5.5h353q28 0 28 24zM478 28l-407 641l52 27l415 -663z" />
    <glyph glyph-name=".null" 
 />
    <glyph glyph-name="nonmarkingreturn" horiz-adv-x="333" 
 />
    <glyph glyph-name="NULL" 
 />
    <glyph glyph-name="NULL" 
 />
    <glyph glyph-name="CR" unicode="&#xd;" 
 />
    <glyph glyph-name="space" unicode=" " horiz-adv-x="233" 
 />
    <glyph glyph-name="exclam" unicode="!" horiz-adv-x="333" 
d="M86 282v435h160v-435h-160zM86 0v166h160v-166h-160z" />
    <glyph glyph-name="quotedbl" unicode="&#x22;" horiz-adv-x="431" 
d="M57 498v228h135v-228h-135zM239 498v228h135v-228h-135z" />
    <glyph glyph-name="numbersign" unicode="#" horiz-adv-x="738" 
d="M702 412h-152l-27 -114h130v-119h-159l-43 -179h-128l44 179h-91l-44 -179h-128l45 179h-113v119h141l27 114h-119v110h146l46 188h128l-47 -188h92l46 188h128l-47 -188h125v-110zM396 298l27 114h-92l-27 -114h92z" />
    <glyph glyph-name="dollar" unicode="$" horiz-adv-x="641" 
d="M289 79l73 -1v-201h-73v202zM301 97v513l50 12v-527zM289 815h73v-178l-73 -12v190zM509 502q-3 5 -21 15.5t-45 22.5t-59 21t-64 9q-42 0 -64.5 -14.5t-22.5 -44.5q0 -24 17 -38t50 -24.5t81 -24.5q68 -18 118 -43.5t76.5 -65.5t26.5 -106q0 -60 -21.5 -101.5t-59.5 -67
t-86 -37t-99 -11.5q-52 0 -106.5 10.5t-104.5 30t-92 47.5l72 143q5 -5 26.5 -18.5t54 -28t72.5 -25.5t81 -11q45 0 66 14t21 39q0 27 -22.5 42t-61 27t-88.5 27q-65 20 -107.5 45t-63 61t-20.5 90q0 75 35.5 126.5t95.5 78t131 26.5q51 0 97 -12t87 -30t72 -36z" />
    <glyph glyph-name="percent" unicode="%" horiz-adv-x="816" 
d="M205 411q-48 0 -86.5 20.5t-61.5 56t-23 78.5t23 78t61.5 55.5t86.5 20.5t87 -20.5t61.5 -55.5t22.5 -78t-22.5 -78.5t-61.5 -56t-87 -20.5zM205 489q17 0 30.5 10.5t21.5 28t8 37.5q0 22 -8 39t-22 27.5t-30 10.5t-30 -10.5t-22 -27.5t-8 -38t8 -38.5t22 -28t30 -10.5z
M611 -10q-48 0 -86.5 20.5t-61.5 56t-23 77.5q0 44 23 79t61.5 55.5t86.5 20.5t87 -20.5t61.5 -55.5t22.5 -78t-22.5 -78.5t-61.5 -56t-87 -20.5zM611 68q17 0 31 10.5t22 28t8 37.5q0 22 -8.5 39t-22.5 27.5t-29 10.5q-17 0 -31 -10.5t-22 -27.5t-8 -38t8 -38.5t22 -28
t30 -10.5zM103 56l283 324l256 339l71 -64l-273 -316l-266 -348z" />
    <glyph glyph-name="ampersand" unicode="&#x26;" horiz-adv-x="729" 
d="M522 0l-326 347q-42 45 -67 77t-35.5 59.5t-10.5 59.5q0 54 26 93.5t71.5 61t102.5 21.5q51 0 96 -17.5t74 -53.5t29 -92q0 -48 -22.5 -87.5t-61 -72.5t-86.5 -62q-35 -21 -62.5 -40.5t-43 -40.5t-15.5 -46q0 -21 12.5 -42.5t37 -35.5t58.5 -14q38 0 76 19.5t69.5 56.5
t50 90t18.5 120h129q0 -101 -31 -178t-82.5 -129t-115.5 -78t-131 -26q-77 0 -132 31.5t-83.5 81t-28.5 105.5q0 57 26 99.5t65.5 74.5t78.5 56q43 28 71 45.5t42 33.5t14 37q0 22 -14.5 35t-37.5 13q-16 0 -29 -7.5t-19.5 -19t-6.5 -26.5q0 -14 8.5 -26.5t29 -32.5
t56.5 -59l410 -431h-210z" />
    <glyph glyph-name="quotesingle" unicode="'" horiz-adv-x="250" 
d="M57 497v229h135v-229h-135z" />
    <glyph glyph-name="parenleft" unicode="(" horiz-adv-x="325" 
d="M30 347q0 102 44 205t108 212l122 -50q-14 -22 -34.5 -62t-41.5 -91.5t-35 -107.5t-14 -109q0 -81 34.5 -166.5t86.5 -179.5l-116 -57q-42 62 -77 129.5t-56 137.5t-21 139z" />
    <glyph glyph-name="parenright" unicode=")" horiz-adv-x="324" 
d="M294 347q0 -69 -21 -139t-56 -137.5t-77 -129.5l-116 57q52 94 86.5 179.5t34.5 166.5q0 53 -14 109t-35 107.5t-41.5 91.5t-34.5 62l122 50q64 -109 108 -212t44 -205z" />
    <glyph glyph-name="asterisk" unicode="*" horiz-adv-x="354" 
d="M71 510l47 75l-71 21l21 67l73 -34l-6 80h83l-6 -80l74 34l21 -67l-71 -21l47 -75l-59 -39l-47 79l-47 -79z" />
    <glyph glyph-name="plus" unicode="+" horiz-adv-x="424" 
d="M379 419v-128h-95v-104h-144v104h-94v128h94v104h144v-104h95z" />
    <glyph glyph-name="comma" unicode="," horiz-adv-x="243" 
d="M72 -135l31 137h-49v161h135v-161l-47 -137h-70z" />
    <glyph glyph-name="hyphen" unicode="-" horiz-adv-x="416" 
d="M54 203v144h308v-144h-308z" />
    <glyph glyph-name="period" unicode="." horiz-adv-x="239" 
d="M54 0v163h131v-163h-131z" />
    <glyph glyph-name="slash" unicode="/" horiz-adv-x="735" 
d="M708 710l-505 -710h-177l505 710h177z" />
    <glyph glyph-name="zero" unicode="0" horiz-adv-x="614" 
d="M568 293q0 -88 -34 -156.5t-93 -107.5t-134 -39q-74 0 -133.5 39t-93.5 107.5t-34 156.5t34 156.5t93.5 108t133.5 39.5q75 0 134 -39.5t93 -108t34 -156.5zM407 293q0 47 -13 82t-35.5 55t-51.5 20q-30 0 -53 -20t-35.5 -55t-12.5 -82t12.5 -82t35.5 -54.5t53 -19.5
q29 0 51.5 19.5t35.5 54.5t13 82z" />
    <glyph glyph-name="one" unicode="1" horiz-adv-x="518" 
d="M494 144v-144h-432v144h142v255q-9 -12 -28 -24t-42.5 -23t-47.5 -17.5t-44 -6.5v148q17 0 42 10.5t50.5 26.5t45 32t24.5 26h163v-427h127z" />
    <glyph glyph-name="two" unicode="2" horiz-adv-x="580" 
d="M35 0q0 47 7.5 84t25 67.5t47 57t74.5 50.5q47 25 78.5 42.5t50.5 29.5t26.5 23.5t7.5 25.5q0 19 -9 33t-26 21.5t-42 7.5q-20 0 -38 -5t-34.5 -15t-31.5 -23.5t-30 -30.5l-101 118q17 17 43.5 34t60.5 30.5t74.5 22t84.5 8.5q72 0 121.5 -21.5t75.5 -60.5t26 -92
q0 -34 -10.5 -59.5t-27.5 -45.5t-38.5 -36t-42.5 -29q-24 -12 -45 -23.5t-39 -22t-33.5 -22t-29.5 -25.5h277v-144h-502z" />
    <glyph glyph-name="three" unicode="3" horiz-adv-x="569" 
d="M393 237q42 -7 73.5 -32.5t49 -63t17.5 -84.5q0 -62 -33 -108t-94 -71t-144 -25q-76 0 -135.5 22.5t-102.5 66.5l86 114q27 -27 62 -42t82 -15q57 0 85 20.5t28 62.5q0 45 -33.5 68t-105.5 23h-30v115h33q55 0 87 23.5t32 60.5q0 22 -10.5 37t-29 22.5t-44.5 7.5
q-40 0 -74 -19t-57 -56l-101 116q22 29 60.5 50.5t87.5 33.5t102 12q71 0 124.5 -22t83 -61.5t29.5 -93.5q0 -39 -16 -73.5t-45 -58t-67 -30.5z" />
    <glyph glyph-name="four" unicode="4" horiz-adv-x="578" 
d="M293 -127v137h-275v143l326 418h109v-417h88v-144h-88v-137h-160zM176 154h136v177z" />
    <glyph glyph-name="five" unicode="5" horiz-adv-x="558" 
d="M261 -149q-77 0 -139 31.5t-95 86.5l89 99q29 -36 67.5 -56.5t78.5 -20.5q31 0 54 12.5t36 34.5t13 52q0 28 -12 50t-33 33.5t-49 11.5q-27 0 -50.5 -12t-36.5 -34h-139l83 432h353v-146h-237l-20 -121q6 7 23.5 12.5t46.5 5.5q69 0 122 -29t83 -81t30 -119
q0 -72 -34.5 -126.5t-94.5 -85t-139 -30.5z" />
    <glyph glyph-name="six" unicode="6" horiz-adv-x="608" 
d="M569 239q0 67 -32.5 119.5t-88.5 83.5t-127 31q-29 0 -54 -6.5t-44 -19t-33 -31.5q2 51 18 87t45 55t67 19q40 0 75 -18t60 -50l90 102q-42 50 -99 77.5t-123 27.5q-87 0 -149.5 -45.5t-96.5 -132.5t-34 -211q0 -106 31.5 -181.5t90.5 -115.5t142 -40q74 0 133.5 33.5
t94 89.5t34.5 126zM307 125q-29 0 -54 15.5t-40.5 41.5t-15.5 56q0 31 15 55.5t40 39t55 14.5t55 -14.5t40 -39t15 -54.5q0 -31 -15.5 -57t-40 -41.5t-54.5 -15.5z" />
    <glyph glyph-name="seven" unicode="7" horiz-adv-x="576" 
d="M328 438h-299v146h551l-350 -710h-181z" />
    <glyph glyph-name="eight" unicode="8" horiz-adv-x="607" 
d="M566 215q0 -67 -35.5 -117.5t-95.5 -78.5t-132 -28q-71 0 -130.5 28.5t-95.5 80.5t-36 121q0 38 15 68.5t38.5 53.5t45.5 36q-22 13 -39.5 32.5t-28 44t-10.5 50.5q0 50 22 88t58 64t78.5 39t82.5 13q41 0 84 -13t79 -38.5t58 -63.5t22 -87q0 -26 -11 -51.5t-29 -45.5
t-40 -32q25 -14 48 -37.5t37.5 -55t14.5 -71.5zM404 225q0 21 -8 37.5t-22.5 28t-32.5 17t-38 5.5q-27 0 -50 -11t-36.5 -30.5t-13.5 -47.5q0 -19 8.5 -35.5t22.5 -28.5t32 -18t38 -6q27 0 49.5 11.5t36.5 31.5t14 46zM224 503q0 -23 12 -38.5t30.5 -23.5t36.5 -8q20 0 38 8
t30 23.5t12 38.5q0 19 -10.5 34t-28.5 23.5t-41 8.5q-22 0 -40 -8.5t-28.5 -23.5t-10.5 -34z" />
    <glyph glyph-name="nine" unicode="9" horiz-adv-x="589" 
d="M30 322q0 -66 32.5 -119t89 -84t126.5 -31q29 0 53.5 6.5t44 19.5t32.5 31q-1 -50 -17 -86.5t-44.5 -55.5t-68.5 -19q-39 0 -74.5 18t-59.5 50l-90 -102q42 -50 99.5 -77.5t122.5 -27.5q86 0 149 46t97 132.5t34 210.5q0 107 -31.5 182t-90.5 115t-142 40
q-74 0 -133.5 -33.5t-94 -89.5t-34.5 -126zM292 436q30 0 54.5 -15.5t40 -41t15.5 -57.5q0 -29 -15 -54t-39.5 -39.5t-55.5 -14.5q-30 0 -55 14.5t-40 39.5t-15 54q0 32 15.5 57.5t40.5 41t54 15.5z" />
    <glyph glyph-name="colon" unicode=":" horiz-adv-x="274" 
d="M72 356v163h130v-163h-130zM72 0v163h130v-163h-130z" />
    <glyph glyph-name="semicolon" unicode=";" horiz-adv-x="280" 
d="M74 356v163h130v-163h-130zM90 -135l32 137h-49v161h135v-161l-47 -137h-71z" />
    <glyph glyph-name="less" unicode="&#x3c;" horiz-adv-x="518" 
d="M32 293l422 256v-170l-190 -120l190 -113v-179l-422 250v76z" />
    <glyph glyph-name="equal" unicode="=" horiz-adv-x="435" 
d="M59 124v102h317v-102h-317zM59 326v102h317v-102h-317z" />
    <glyph glyph-name="greater" unicode="&#x3e;" horiz-adv-x="518" 
d="M486 217l-423 -250v179l191 113l-191 120v170l423 -256v-76z" />
    <glyph glyph-name="question" unicode="?" horiz-adv-x="490" 
d="M109 245q0 31 6 58t23.5 51t51.5 43q13 8 34.5 18.5t42.5 25.5t35.5 35t14.5 44q0 22 -11.5 37.5t-29 24t-38.5 8.5q-26 0 -45.5 -12t-32.5 -28.5t-23 -31.5l-103 72q17 41 48.5 69.5t73 44t88.5 15.5q37 0 75 -11t69 -35t49.5 -62.5t18.5 -91.5q0 -29 -5.5 -52.5
t-17.5 -43t-30 -36t-40 -31.5q-28 -18 -56 -32.5t-47 -32.5t-19 -46h-132zM112 0v150h131v-150h-131z" />
    <glyph glyph-name="at" unicode="@" horiz-adv-x="848" 
d="M423 603q74 0 141.5 -23.5t121 -71t84.5 -119.5t31 -168q0 -17 -2.5 -45.5t-10.5 -61.5t-25 -62.5t-46.5 -48.5t-73.5 -19q-36 0 -57 12.5t-30 30.5t-12 35q-33 -31 -77 -48.5t-93 -17.5q-75 0 -114.5 39.5t-39.5 102.5q0 57 27.5 89t70.5 46.5t89 14.5q39 0 66.5 -7.5
t41.5 -13.5q0 32 -9.5 56t-33.5 38t-68 14q-41 0 -74.5 -11.5t-55.5 -31.5l-28 83q37 26 81.5 38t92.5 12q68 0 106.5 -20t56 -52.5t22 -69t4.5 -69.5v-82q0 -29 2.5 -57t13 -45t33.5 -17q26 0 41.5 19.5t23.5 48t11 57t3 47.5q0 68 -23 126t-64.5 101t-100 66.5
t-131.5 23.5q-71 0 -129 -23t-99 -65.5t-63.5 -99.5t-22.5 -125q0 -65 21 -122t60 -100t94.5 -67.5t125.5 -24.5q50 0 85 11.5t72 26.5l18 -59q-42 -20 -87.5 -30t-89.5 -10q-75 0 -141 27t-115.5 76t-78 118.5t-28.5 155.5q0 90 31 159.5t84.5 117t122.5 71.5t145 24z
M468 93q14 7 24.5 16.5t16 21t5.5 24.5v40q-15 4 -44 11.5t-62 7.5q-29 0 -50 -7.5t-32.5 -24t-11.5 -42.5q0 -21 8 -35.5t24 -22.5t39 -8q17 0 40.5 4.5t42.5 14.5z" />
    <glyph glyph-name="A" unicode="A" horiz-adv-x="670" 
d="M247 710h177l244 -710h-168l-55 159h-221l-54 -159h-168zM418 272l-83 273l-85 -273h168z" />
    <glyph glyph-name="B" unicode="B" horiz-adv-x="684" 
d="M655 182q0 -61 -32.5 -101.5t-87.5 -60.5t-121 -20h-346v710h395q50 0 86.5 -26.5t56 -68.5t19.5 -87q0 -50 -26 -95.5t-76 -68.5q61 -18 96.5 -64t35.5 -118zM488 215q0 23 -9 40.5t-23.5 28t-34.5 10.5h-189v-155h182q21 0 37.5 10t26.5 27t10 39zM232 570v-147h161
q18 0 33.5 8t25.5 24.5t10 41.5q0 24 -8.5 40t-22.5 24.5t-32 8.5h-167z" />
    <glyph glyph-name="C" unicode="C" horiz-adv-x="688" 
d="M27 361q0 65 24 127.5t70 113.5t112 81.5t150 30.5q100 0 173.5 -43t109.5 -112l-126 -88q-16 38 -42.5 59t-58 29.5t-60.5 8.5q-47 0 -82 -18.5t-58 -49.5t-34 -69t-11 -76q0 -42 13 -81t37.5 -69t59.5 -47.5t77 -17.5q30 0 61 10t57.5 31.5t40.5 56.5l134 -79
q-21 -52 -69 -89t-108.5 -56.5t-119.5 -19.5q-77 0 -141.5 31.5t-111 84t-72 118t-25.5 133.5z" />
    <glyph glyph-name="D" unicode="D" horiz-adv-x="716" 
d="M68 0v710h265q117 0 195.5 -47.5t118.5 -128t40 -178.5q0 -108 -44 -188t-123.5 -124t-186.5 -44h-265zM520 356q0 62 -22 109.5t-64 74t-101 26.5h-101v-422h101q60 0 101.5 27.5t63.5 76t22 108.5z" />
    <glyph glyph-name="E" unicode="E" horiz-adv-x="599" 
d="M567 144v-144h-499v710h490v-144h-326v-138h280v-133h-280v-151h335z" />
    <glyph glyph-name="F" unicode="F" horiz-adv-x="569" 
d="M68 0v710h482v-144h-318v-153h262v-133h-262v-280h-164z" />
    <glyph glyph-name="G" unicode="G" horiz-adv-x="732" 
d="M369 -5q-70 0 -132 26.5t-109 75t-73.5 115t-26.5 148.5q0 74 27 138t75 113t112.5 76.5t139.5 27.5q98 0 173 -42t111 -113l-122 -92q-24 47 -69.5 74t-98.5 27q-40 0 -73.5 -16.5t-58 -46t-37.5 -68.5t-13 -84q0 -46 14 -85t39 -67.5t59.5 -44.5t76.5 -16
q51 0 97.5 25.5t85.5 75.5v-162q-85 -85 -197 -85zM556 252h-138v119h274v-371h-136v252z" />
    <glyph glyph-name="H" unicode="H" horiz-adv-x="747" 
d="M679 710v-710h-164v291h-283v-291h-164v710h164v-275h283v275h164z" />
    <glyph glyph-name="I" unicode="I" horiz-adv-x="300" 
d="M68 0v710h164v-710h-164z" />
    <glyph glyph-name="J" unicode="J" horiz-adv-x="494" 
d="M40 167q10 -7 42.5 -19.5t76.5 -12.5q35 0 57.5 12t34 36.5t15.5 64t4 95.5v367h164v-361q0 -80 -9 -146t-36.5 -114.5t-82.5 -74t-147 -25.5q-47 0 -85 11t-70 33z" />
    <glyph glyph-name="K" unicode="K" horiz-adv-x="679" 
d="M68 0v710h164v-306l260 306h184l-266 -317l284 -393h-188l-200 285l-74 -76v-209h-164z" />
    <glyph glyph-name="L" unicode="L" horiz-adv-x="585" 
d="M68 0v710h164v-566h344v-144h-508z" />
    <glyph glyph-name="M" unicode="M" horiz-adv-x="860" 
d="M628 0v423l-153 -308h-90l-153 308v-423h-164v710h178l184 -371l185 371h177v-710h-164z" />
    <glyph glyph-name="N" unicode="N" horiz-adv-x="759" 
d="M232 406v-406h-164v710h130l329 -418v418h164v-710h-134z" />
    <glyph glyph-name="O" unicode="O" horiz-adv-x="760" 
d="M379 -6q-80 0 -144.5 30.5t-111 82t-71.5 116t-25 133.5q0 71 26.5 135t74 114.5t112.5 79.5t142 29q79 0 143.5 -30.5t111 -82.5t71.5 -116.5t25 -131.5q0 -71 -26 -135t-74 -114.5t-112.5 -80t-141.5 -29.5zM194 354q0 -41 12 -79.5t35.5 -68.5t58.5 -48t80 -18
q47 0 82 18.5t58 49.5t34.5 69.5t11.5 78.5q0 41 -12 79t-36 68.5t-59 47.5t-79 17q-47 0 -81.5 -18t-58 -48.5t-35 -69t-11.5 -78.5z" />
    <glyph glyph-name="P" unicode="P" horiz-adv-x="623" 
d="M68 0v710h303q51 0 93.5 -20.5t73.5 -55t48 -77.5t17 -88q0 -61 -28.5 -116t-79 -89.5t-119.5 -34.5h-144v-229h-164zM232 372h134q19 0 35 11t26 33t10 54q0 33 -11.5 54.5t-29 31.5t-36.5 10h-128v-194z" />
    <glyph glyph-name="Q" unicode="Q" horiz-adv-x="759" 
d="M379 -5q-80 0 -144.5 30t-111 81.5t-71.5 116t-25 133.5q0 71 26.5 135.5t74 114.5t112.5 79.5t142 29.5q79 0 143.5 -31t111 -83t71.5 -116.5t25 -131.5q0 -71 -26 -135t-74 -114.5t-112.5 -79.5t-141.5 -29zM380 141q47 0 82 18.5t58 49t34.5 69t11.5 78.5
q0 41 -12 79.5t-36 68.5t-59 47.5t-79 17.5q-47 0 -81.5 -18.5t-58 -49t-35 -69t-11.5 -78.5q0 -41 12 -79t35.5 -68.5t58.5 -48t80 -17.5zM336 280h154l253 -280h-154z" />
    <glyph glyph-name="R" unicode="R" horiz-adv-x="670" 
d="M68 0v710h320q50 0 92.5 -20.5t73.5 -55t48.5 -77.5t17.5 -87t-14 -83.5t-40 -71t-62 -51.5l156 -264h-181l-136 229h-111v-229h-164zM232 372h150q20 0 35.5 12.5t25.5 34.5t10 51t-11.5 50.5t-28.5 33.5t-36 12h-145v-194z" />
    <glyph glyph-name="S" unicode="S" horiz-adv-x="615" 
d="M494 502q-3 5 -21 15.5t-45 22.5t-59 21t-64 9q-42 0 -65 -14.5t-23 -44.5q0 -24 17.5 -38t50.5 -24.5t81 -24.5q68 -18 118 -43.5t76.5 -65.5t26.5 -106q0 -60 -22 -101.5t-59.5 -67t-85.5 -37t-99 -11.5q-52 0 -106.5 10.5t-104.5 30t-92 47.5l72 143q4 -5 26 -18.5
t54.5 -28t72.5 -25.5t81 -11q44 0 65.5 14t21.5 39q0 27 -22.5 42t-61 27t-88.5 27q-65 20 -107.5 45t-63 61t-20.5 90q0 75 35.5 126.5t95.5 78t131 26.5q50 0 96.5 -12t87 -30t72.5 -36z" />
    <glyph glyph-name="T" unicode="T" horiz-adv-x="621" 
d="M609 566h-216v-566h-164v566h-217v144h597v-144z" />
    <glyph glyph-name="U" unicode="U" horiz-adv-x="747" 
d="M373 -6q-85 0 -145 28.5t-97.5 78t-55 113t-17.5 133.5v363h164v-363q0 -40 8 -77.5t26 -66.5t46.5 -46t70.5 -17q43 0 72 17.5t46 47t25 66.5t8 76v363h164v-363q0 -74 -18.5 -138t-56.5 -112.5t-97.5 -75.5t-142.5 -27z" />
    <glyph glyph-name="V" unicode="V" horiz-adv-x="674" 
d="M171 710l167 -518l165 518h173l-258 -710h-161l-260 710h174z" />
    <glyph glyph-name="W" unicode="W" horiz-adv-x="1055" 
d="M302 709h151l74 -227l74 227h152l-121 -330l72 -189l178 520h179l-277 -710h-142l-115 278l-114 -278h-143l-276 710h178l179 -520l70 189z" />
    <glyph glyph-name="X" unicode="X" horiz-adv-x="651" 
d="M172 710l154 -245l154 245h178l-235 -360l227 -350h-178l-146 235l-146 -235h-179l227 350l-235 360h179z" />
    <glyph glyph-name="Y" unicode="Y" horiz-adv-x="663" 
d="M178 710l153 -314l155 314h179l-253 -468v-242h-163v244l-249 466h178z" />
    <glyph glyph-name="Z" unicode="Z" horiz-adv-x="625" 
d="M28 123l362 443h-348v144h545v-123l-345 -443h349v-144h-563v123z" />
    <glyph glyph-name="bracketleft" unicode="[" horiz-adv-x="341" 
d="M80 -40v780h215v-127h-67v-526h67v-127h-215z" />
    <glyph glyph-name="backslash" unicode="\" horiz-adv-x="663" 
d="M203 710l435 -710h-176l-436 710h177z" />
    <glyph glyph-name="bracketright" unicode="]" horiz-adv-x="341" 
d="M47 -40v127h66v526h-66v127h214v-780h-214z" />
    <glyph glyph-name="asciicircum" unicode="^" horiz-adv-x="604" 
d="M38 303l198 407h133l197 -407h-130l-134 275l-136 -275h-128z" />
    <glyph glyph-name="underscore" unicode="_" horiz-adv-x="459" 
d="M50 -144v144h360v-144h-360z" />
    <glyph glyph-name="grave" unicode="`" horiz-adv-x="269" 
d="M46 730h145l52 -130l-101 -28z" />
    <glyph glyph-name="a" unicode="a" horiz-adv-x="586" 
d="M22 157q0 52 29 91t80 61.5t117 22.5q32 0 63 -5.5t54 -15.5v23q0 43 -26 66t-79 23q-44 0 -82.5 -15t-81.5 -43l-48 102q52 34 108.5 51t119.5 17q118 0 183.5 -56.5t65.5 -163.5v-137q0 -24 7.5 -33.5t26.5 -11.5v-133q-20 -4 -37.5 -6t-30.5 -2q-45 0 -68.5 18
t-29.5 49l-3 23q-35 -45 -83.5 -68.5t-101.5 -23.5q-52 0 -93.5 22t-65.5 60t-24 85zM340 137q11 9 18 20t7 21v47q-20 8 -44.5 12.5t-45.5 4.5q-44 0 -73 -19.5t-29 -51.5q0 -18 10 -33t27.5 -24t41.5 -9t48 9t40 23z" />
    <glyph glyph-name="b" unicode="b" horiz-adv-x="640" 
d="M370 -10q-60 0 -105 25.5t-71 71.5v-87h-139v730h160v-291q26 46 69.5 71t102.5 25q50 0 91.5 -21.5t72 -59t47.5 -87t17 -107.5q0 -57 -18.5 -106t-51.5 -86t-77.5 -57.5t-97.5 -20.5zM325 125q27 0 50.5 10.5t40.5 28.5t26 42.5t9 53.5q0 37 -15 69t-41.5 51t-61.5 19
q-25 0 -48 -12t-41 -32.5t-29 -46.5v-110q8 -17 20 -30.5t26.5 -22.5t31 -14.5t32.5 -5.5z" />
    <glyph glyph-name="c" unicode="c" horiz-adv-x="570" 
d="M306 -10q-67 0 -119 22t-88.5 60t-55.5 87t-19 104q0 72 33.5 134t96.5 100t152 38q90 0 152.5 -38.5t93.5 -100.5l-156 -47q-15 24 -38.5 37t-52.5 13q-33 0 -59.5 -17t-42 -47t-15.5 -72q0 -41 16 -72t42 -48.5t59 -17.5q20 0 37.5 6.5t32 18.5t22.5 27l156 -48
q-19 -40 -54.5 -71.5t-83.5 -49.5t-109 -18z" />
    <glyph glyph-name="d" unicode="d" horiz-adv-x="654" 
d="M25 263q0 77 30 138.5t82 97.5t120 36q55 0 100 -26.5t68 -69.5v291h160v-552q0 -24 8 -33.5t26 -11.5v-133q-42 -8 -68 -8q-41 0 -66.5 18t-31.5 50l-3 27q-28 -49 -76 -73t-101 -24q-54 0 -99.5 20.5t-79 57.5t-51.5 87t-18 108zM426 198v110q-10 27 -28.5 47t-42 32
t-47.5 12q-26 0 -47.5 -11t-37.5 -30.5t-24.5 -44.5t-8.5 -53q0 -29 9.5 -53.5t26.5 -43t40 -28.5t50 -10q17 0 33 5.5t30.5 14.5t26.5 23t20 30z" />
    <glyph glyph-name="e" unicode="e" horiz-adv-x="604" 
d="M306 -10q-67 0 -119 21.5t-88.5 58.5t-55.5 85.5t-19 101.5q0 76 33.5 138.5t96.5 101t152 38.5t151.5 -38t95.5 -99.5t33 -133.5q0 -14 -1.5 -27.5t-2.5 -23.5h-388q3 -35 19.5 -59t42.5 -36.5t55 -12.5q36 0 67.5 17t43.5 46l136 -38q-20 -41 -56.5 -72.5t-86 -49.5
t-109.5 -18zM190 311h228q-4 33 -19 57.5t-40 38t-55 13.5q-31 0 -55.5 -13.5t-39.5 -38t-19 -57.5z" />
    <glyph glyph-name="f" unicode="f" horiz-adv-x="385" 
d="M89 0v361h-67v121h67v43q0 66 22.5 114t64 74.5t96.5 26.5q34 0 68 -8t69 -23l-29 -120q-15 7 -35 11.5t-37 4.5q-29 0 -44 -18.5t-15 -55.5v-49h122v-121h-122v-361h-160z" />
    <glyph glyph-name="g" unicode="g" horiz-adv-x="640" 
d="M259 -2q-52 0 -95 20.5t-73.5 57t-47.5 84.5t-17 103q0 58 18 107t50.5 86.5t77 58t98.5 20.5q59 0 104 -25.5t72 -70.5v86h139v-489q0 -80 -38.5 -138t-107 -89.5t-158.5 -31.5q-84 0 -144.5 27.5t-105.5 77.5l86 87q29 -33 72 -52.5t92 -19.5q39 0 72 14t52.5 45
t19.5 80v51q-24 -43 -69.5 -66t-96.5 -23zM314 125q19 0 35.5 5.5t30.5 15t26 23t19 29.5v110q-10 28 -29 48.5t-42 31.5t-48 11t-47 -11t-37.5 -31.5t-24 -45.5t-8.5 -52q0 -29 9.5 -53t26.5 -42.5t40 -28.5t49 -10z" />
    <glyph glyph-name="h" unicode="h" horiz-adv-x="612" 
d="M561 0h-160v295q0 51 -20.5 75t-54.5 24q-18 0 -40.5 -11.5t-41.5 -32.5t-29 -49v-301h-160v730h160v-293q29 47 76.5 72.5t104.5 25.5q54 0 86.5 -18t49.5 -47.5t23 -64.5t6 -69v-336z" />
    <glyph glyph-name="i" unicode="i" horiz-adv-x="270" 
d="M55 0v525h160v-525h-160zM55 585v145h160v-145h-160z" />
    <glyph glyph-name="j" unicode="j" horiz-adv-x="274" 
d="M27 -202q-39 0 -75.5 12.5t-65.5 37.5l67 109q10 -11 24.5 -16t29.5 -5t27 6.5t19 19.5t7 29v534h160v-522q0 -60 -25.5 -106.5t-69 -72.5t-98.5 -26zM60 585v145h160v-145h-160z" />
    <glyph glyph-name="k" unicode="k" horiz-adv-x="569" 
d="M408 0l-137 210l-56 -57v-153h-160v730h160v-422l178 217h169l-189 -226l205 -299h-170z" />
    <glyph glyph-name="l" unicode="l" horiz-adv-x="335" 
d="M53 730h160v-543q0 -33 12 -47t34 -14q15 0 30.5 4.5t27.5 10.5l21 -120q-30 -14 -69 -22t-73 -8q-68 0 -105.5 36.5t-37.5 103.5v599z" />
    <glyph glyph-name="m" unicode="m" horiz-adv-x="935" 
d="M885 0h-160v295q0 51 -19 75t-49 24q-32 0 -63 -26t-44 -67v-301h-160v295q0 52 -19 75.5t-49 23.5q-31 0 -62 -26t-45 -67v-301h-160v525h144v-88q29 47 78.5 72.5t115.5 25.5q65 0 100 -30.5t45 -71.5q30 49 79.5 75.5t111.5 26.5q50 0 81 -18.5t47 -48.5t22 -64.5
t6 -67.5v-336z" />
    <glyph glyph-name="n" unicode="n" horiz-adv-x="612" 
d="M561 0h-160v295q0 52 -19.5 75.5t-51.5 23.5q-22 0 -45 -12t-41.5 -33t-28.5 -48v-301h-160v525h144v-88q20 31 50 53t69 33.5t85 11.5q51 0 82.5 -18.5t48 -48.5t22 -64.5t5.5 -67.5v-336z" />
    <glyph glyph-name="o" unicode="o" horiz-adv-x="610" 
d="M305 -10q-67 0 -119.5 22t-88.5 60t-54.5 87t-18.5 103q0 55 18.5 104t54.5 87t88.5 60t119.5 22t119 -22t88 -60t55 -87t19 -104q0 -54 -19 -103t-55 -87t-88 -60t-119 -22zM188 262q0 -41 15.5 -72t41.5 -48t60 -17q33 0 59.5 17.5t41.5 48.5t15 71q0 41 -15 72
t-41.5 48t-59.5 17q-34 0 -60 -17t-41.5 -48t-15.5 -72z" />
    <glyph glyph-name="p" unicode="p" horiz-adv-x="640" 
d="M387 -10q-59 0 -103 25.5t-69 69.5v-298h-160v738h139v-85q29 45 73 70t103 25q53 0 97.5 -21t77.5 -58t51 -86t18 -106q0 -78 -29 -140t-80.5 -98t-117.5 -36zM333 125q26 0 47.5 11.5t37.5 30.5t24.5 44.5t8.5 53.5q0 29 -9.5 53t-26.5 42.5t-40 28.5t-50 10
q-16 0 -32.5 -5t-31 -14.5t-26.5 -22.5t-20 -30v-108q11 -27 29 -48t41 -33.5t48 -12.5z" />
    <glyph glyph-name="q" unicode="q" horiz-adv-x="640" 
d="M253 -10q-50 0 -91.5 21t-72 58t-47 87t-16.5 108t18 107t51.5 86t78 57.5t96.5 20.5q59 0 103 -26t73 -70v86h139v-739h-160v299q-53 -95 -172 -95zM314 125q23 0 43.5 9t37.5 25t30 37v111q-6 19 -18 36t-28 30t-34 19.5t-36 6.5q-27 0 -48.5 -11t-37.5 -30.5
t-25 -44.5t-9 -53q0 -39 16 -69t44 -48t65 -18z" />
    <glyph glyph-name="r" unicode="r" horiz-adv-x="400" 
d="M388 388q-58 0 -105 -18.5t-68 -54.5v-315h-160v525h147v-106q27 53 70 83t90 31h16.5t9.5 -1v-144z" />
    <glyph glyph-name="s" unicode="s" horiz-adv-x="497" 
d="M256 -10q-67 0 -131 22t-108 65l55 101q48 -35 93.5 -53t85.5 -18q31 0 48 10t17 31q0 15 -10 23.5t-30.5 15.5t-50.5 15q-60 20 -100 39t-60 46.5t-20 71.5q0 53 26.5 92.5t75.5 61.5t117 22q54 0 105.5 -17t96.5 -57l-62 -100q-45 31 -80 45t-68 14q-17 0 -31 -4
t-22.5 -13.5t-8.5 -24.5t8.5 -24t27 -15.5t46.5 -15.5q65 -19 108 -38.5t64.5 -48t21.5 -75.5q0 -80 -57.5 -125.5t-156.5 -45.5z" />
    <glyph glyph-name="t" unicode="t" horiz-adv-x="402" 
d="M395 28q-22 -9 -48.5 -18t-55.5 -14.5t-57 -5.5q-40 0 -73.5 13.5t-53 44.5t-19.5 82v274h-67v121h67v167h160v-167h107v-121h-107v-219q0 -26 13 -37.5t33 -11.5q17 0 36.5 6t33.5 13z" />
    <glyph glyph-name="u" unicode="u" horiz-adv-x="627" 
d="M50 189v336h160v-301q0 -48 19 -73.5t54 -25.5q22 0 42 7.5t39 24.5t34 44v324h160v-347q0 -24 7.5 -33.5t26.5 -11.5v-133q-22 -4 -38.5 -6t-29.5 -2q-42 0 -67 17.5t-31 49.5l-3 32q-36 -52 -89.5 -76.5t-119.5 -24.5q-80 0 -122 51t-42 148z" />
    <glyph glyph-name="v" unicode="v" horiz-adv-x="556" 
d="M191 0l-186 525h165l115 -381l115 381h150l-185 -525h-174z" />
    <glyph glyph-name="w" unicode="w" horiz-adv-x="850" 
d="M702 525h152l-217 -525h-132l-80 214l-80 -214h-132l-217 525h151l141 -374l50 146l-94 228h131l50 -158l50 158h130l-93 -228l50 -146z" />
    <glyph glyph-name="x" unicode="x" horiz-adv-x="542" 
d="M168 525l93 -148l10 -19l10 19l93 148h165l-176 -261l180 -264h-165l-98 147l-9 19l-9 -19l-98 -147h-165l180 261l-176 264h165z" />
    <glyph glyph-name="y" unicode="y" horiz-adv-x="552" 
d="M59 -79q20 -6 37.5 -9.5t31.5 -3.5q19 0 32.5 8.5t23.5 29t18 54.5l-200 525h165l122 -361l104 361h151l-200 -610q-14 -43 -43 -76t-70 -51.5t-90 -18.5q-21 0 -41 3.5t-41 11.5v137z" />
    <glyph glyph-name="z" unicode="z" horiz-adv-x="494" 
d="M24 96l267 318h-253v111h421v-96l-264 -318h271v-111h-442v96z" />
    <glyph glyph-name="braceleft" unicode="{" horiz-adv-x="344" 
d="M237 613v-181q0 -23 -11 -40.5t-27 -31.5q15 -13 26.5 -31t11.5 -41v-192h55v-127h-176q-6 0 -14.5 6t-8.5 24v235q0 29 -17 48.5t-37 23.5v110q14 0 26.5 11t20 27t7.5 32v224q0 18 9 24t14 6h176v-127h-55z" />
    <glyph glyph-name="bar" unicode="|" horiz-adv-x="291" 
d="M78 -130v905h135v-905h-135z" />
    <glyph glyph-name="braceright" unicode="}" horiz-adv-x="344" 
d="M52 613v127h175q6 0 14.5 -6t8.5 -24v-224q0 -16 8 -32t20.5 -27t26.5 -11v-110q-20 -4 -37.5 -23.5t-17.5 -48.5v-235q0 -18 -8 -24t-15 -6h-175v127h55v192q0 23 11 41t26 31q-16 14 -26.5 31.5t-10.5 40.5v181h-55z" />
    <glyph glyph-name="asciitilde" unicode="~" horiz-adv-x="587" 
d="M51 222q0 10 7.5 34t25 49t46.5 43.5t72 18.5q39 0 68 -13t56.5 -26.5t57.5 -13.5q29 0 44 12t20 24.5t5 14.5h86q0 -6 -7.5 -28.5t-25.5 -49t-48 -46t-75 -19.5q-36 0 -66.5 12.5t-57.5 25.5t-58 13q-28 0 -42 -12.5t-18 -25t-4 -13.5h-86z" />
    <glyph glyph-name="uni00A0" unicode="&#xa0;" horiz-adv-x="233" 
 />
    <glyph glyph-name="exclamdown" unicode="&#xa1;" horiz-adv-x="331" 
d="M245 429v-435h-160v435h160zM245 711v-166h-160v166h160z" />
    <glyph glyph-name="cent" unicode="&#xa2;" horiz-adv-x="604" 
d="M276 -120v111q-52 4 -95.5 28t-76 62t-49.5 83.5t-17 93.5q0 68 27 125.5t80 97.5t131 52v112h69v-112q68 -2 127.5 -36t94.5 -101l-156 -47q-11 19 -29 31t-37 14v-265q15 5 28 11t23.5 16t15.5 21l156 -48q-21 -46 -61 -77t-84 -46.5t-78 -15.5v-110h-69zM203 258
q0 -26 9 -50t25 -42.5t39 -28.5v250q-17 -6 -30.5 -17.5t-23.5 -29t-14.5 -39t-4.5 -43.5z" />
    <glyph glyph-name="sterling" unicode="&#xa3;" horiz-adv-x="564" 
d="M59 384h394v-119h-394v119zM50 105q31 23 53.5 51.5t34.5 60.5t12 63q0 34 -11.5 65.5t-26 62t-26 62t-11.5 64.5q0 51 29 92t78 65t109 24q63 0 120.5 -27.5t97.5 -77.5l-83 -98q-24 31 -63 52.5t-74 21.5q-21 0 -37.5 -9t-25.5 -24.5t-9 -35.5q0 -24 10.5 -48.5
t24.5 -52t24.5 -59.5t10.5 -70q0 -28 -7.5 -55t-25 -53.5t-44.5 -55.5q22 7 41 10.5t35 3.5q23 0 45.5 -4t44.5 -8t43 -4q18 0 34 3.5t36 10.5l39 -118q-23 -14 -55 -23t-62 -9q-31 0 -62.5 8t-64 15.5t-65.5 7.5q-27 0 -64 -7t-72 -18z" />
    <glyph glyph-name="currency" unicode="&#xa4;" horiz-adv-x="560" 
d="M176 501q22 13 48 19.5t57 6.5q30 0 55.5 -6.5t47.5 -18.5l69 70l62 -62l-66 -66q15 -22 23 -49.5t8 -56.5q0 -30 -8 -57.5t-24 -50.5l67 -66l-57 -57l-72 67q-22 -11 -48 -18t-57 -7q-32 0 -58.5 7t-48.5 19l-72 -68l-58 57l68 68q-30 47 -30 106q0 28 7.5 55t21.5 49
l-67 68l63 62zM197 337q0 -27 11 -47.5t30 -32t43 -11.5q25 0 43.5 11.5t29.5 32.5t11 48q0 28 -11 48.5t-29.5 31.5t-43.5 11q-24 0 -43 -11t-30 -32t-11 -49z" />
    <glyph glyph-name="yen" unicode="&#xa5;" horiz-adv-x="726" 
d="M533 416h69v-103h-122l-38 -71v-31h161v-103h-161v-108h-163v108h-160v103h160v33l-37 69h-122v103h70l-160 294h177l153 -326l156 326h179z" />
    <glyph glyph-name="brokenbar" unicode="&#xa6;" horiz-adv-x="294" 
d="M215 260v-390h-136v390h136zM215 775v-390h-136v390h136z" />
    <glyph glyph-name="section" unicode="&#xa7;" horiz-adv-x="541" 
d="M471 223q12 -13 21 -38t9 -63q0 -58 -22 -98t-57.5 -64.5t-75.5 -36t-75 -11.5q-41 0 -77 11.5t-64.5 29t-49.5 36.5t-32 32l102 98q29 -30 57 -42.5t56 -12.5q20 0 36 5.5t26 17.5t10 29q0 18 -9.5 26t-23.5 11.5t-28 3.5q-70 5 -117 30t-71 64.5t-24 89.5q0 29 6 45.5
t9 24.5q-10 12 -23 40.5t-13 66.5q0 52 28.5 96.5t78 72.5t110.5 28q46 0 81.5 -13.5t62.5 -34.5t46.5 -44.5t32.5 -41.5l-122 -58q-9 15 -22 26.5t-30 17.5t-39 6q-21 0 -35.5 -6.5t-22.5 -18t-8 -27.5q0 -29 19.5 -37.5t45.5 -9.5q38 -1 76.5 -10t71.5 -29.5t53 -52.5
t20 -81q0 -28 -6 -49t-11 -29zM217 319q0 -18 7.5 -28t20 -14.5t27 -6.5t28 -3.5t23.5 -4.5q7 5 10.5 15t3.5 19q0 20 -10.5 30.5t-25 15t-27.5 4.5q-14 0 -27 2.5t-17 4.5q-6 -5 -9.5 -14.5t-3.5 -19.5z" />
    <glyph glyph-name="dieresis" unicode="&#xa8;" horiz-adv-x="508" 
d="M83 593v129h132v-129h-132zM293 593v129h132v-129h-132z" />
    <glyph glyph-name="copyright" unicode="&#xa9;" horiz-adv-x="844" 
d="M418 -7q-81 0 -150 27t-120 76t-79 115t-28 144q0 77 28 143t79 114.5t120 75.5t150 27q83 0 153.5 -27t122.5 -75.5t81 -114.5t29 -143q0 -78 -29 -144t-81 -115t-122.5 -76t-153.5 -27zM418 51q68 0 126.5 22t102.5 62.5t69 96t25 122.5q0 64 -24.5 119t-68 96
t-102.5 64.5t-128 23.5q-67 0 -124.5 -23.5t-100 -64.5t-66 -96t-23.5 -118q0 -64 23.5 -119t66 -96.5t100 -65t124.5 -23.5zM428 120q-59 0 -106 18.5t-79.5 50.5t-50.5 75t-18 90q0 46 16.5 88t48 75t78.5 52.5t109 19.5q83 0 141 -36t85 -96l-150 -46q-9 16 -21 26.5
t-26.5 15.5t-29.5 5q-21 0 -37.5 -8t-29 -22t-19 -32.5t-6.5 -41.5q0 -24 7.5 -43.5t21 -32.5t30 -20t34.5 -7q16 0 30.5 6t27 16.5t20.5 25.5l150 -46q-16 -36 -48 -66.5t-76.5 -48.5t-101.5 -18z" />
    <glyph glyph-name="ordfeminine" unicode="&#xaa;" horiz-adv-x="447" 
d="M158 336q-51 0 -86 33t-35 83q0 54 42 88t108 34q46 0 76 -15v15q0 30 -16 46t-51 16q-29 0 -55 -10t-54 -30l-34 71q70 47 154 47q80 0 124 -39t44 -114v-89q0 -17 6.5 -24t21.5 -8v-97q-14 -3 -27.5 -4.5t-24.5 -1.5q-30 0 -47 12.5t-21 35.5l-2 16q-24 -31 -55.5 -48
t-67.5 -17zM191 419q16 0 31.5 6t25.5 15q15 11 15 26v33q-13 6 -28 9t-29 3q-28 0 -45.5 -13.5t-17.5 -35.5q0 -18 14 -30.5t34 -12.5z" />
    <glyph glyph-name="guillemotleft" unicode="&#xab;" horiz-adv-x="679" 
d="M33 293l270 193v-129l-144 -98l144 -91v-129l-270 178v76zM352 293l270 193v-129l-144 -98l144 -91v-129l-270 178v76z" />
    <glyph glyph-name="logicalnot" unicode="&#xac;" horiz-adv-x="623" 
d="M561 415v-317h-135v173h-372v144h507z" />
    <glyph glyph-name="uni00AD" unicode="&#xad;" horiz-adv-x="615" 
d="M54 203v144h507v-144h-507z" />
    <glyph glyph-name="registered" unicode="&#xae;" horiz-adv-x="844" 
d="M420 -7q-82 0 -151.5 27t-120.5 76t-79 115t-28 144q0 77 28 143t79 114.5t120.5 75.5t151.5 27t152 -27t122 -75.5t81 -114.5t29 -143q0 -78 -29 -144t-81 -115t-122 -76t-152 -27zM421 50q89 0 161 39t113.5 107.5t41.5 156.5q0 64 -23.5 119t-66 96.5t-100.5 65
t-126 23.5q-69 0 -126.5 -23.5t-99.5 -64.5t-65 -96t-23 -119q0 -63 23 -118.5t65 -97t99.5 -65t126.5 -23.5zM254 574h197q42 0 74 -22t50.5 -56t18.5 -70q0 -26 -9.5 -50t-25.5 -43.5t-37 -31.5l99 -161h-125l-87 140h-42v-140h-113v434zM440 372q19 0 31 12.5t12 41.5
q0 30 -13.5 42t-31.5 12h-71v-108h73z" />
    <glyph glyph-name="macron" unicode="&#xaf;" horiz-adv-x="428" 
d="M62 621v97h304v-97h-304z" />
    <glyph glyph-name="degree" unicode="&#xb0;" horiz-adv-x="292" 
d="M36 618q0 45 31 75.5t79 30.5t79 -30.5t31 -75.5q0 -52 -31 -83t-79 -31t-79 32t-31 82zM121 638q-10 -10 -10 -24t10 -24q11 -11 25 -11q15 0 24 11q5 4 7.5 11t2.5 13q0 7 -2.5 13.5t-7.5 10.5q-4 5 -11 7.5t-13 2.5q-15 0 -25 -10z" />
    <glyph glyph-name="plusminus" unicode="&#xb1;" horiz-adv-x="476" 
d="M54 16v127h366v-127h-366zM421 445v-127h-111v-121h-144v121h-111v127h111v121h144v-121h111z" />
    <glyph glyph-name="uni00B2" unicode="&#xb2;" horiz-adv-x="428" 
d="M28 383q0 53 12 88.5t40.5 61t79.5 48.5q29 13 60 25.5t52 29.5t21 42q0 26 -22 41t-59 15q-28 0 -51.5 -8.5t-41 -20.5t-29.5 -24l-59 68q13 16 40 32.5t66.5 26.5t85.5 10q85 0 129 -36t44 -98q0 -34 -12.5 -58.5t-32.5 -41t-42.5 -26.5t-40.5 -16q-28 -8 -47.5 -18
t-29 -22t-9.5 -28h213v-91h-367z" />
    <glyph glyph-name="uni00B3" unicode="&#xb3;" horiz-adv-x="414" 
d="M198 376q-60 0 -107.5 19t-64.5 57l48 63q11 -12 27.5 -23.5t39.5 -18t52 -6.5q36 0 62 11.5t26 37.5q0 25 -28.5 37t-92.5 12h-24v82h24q55 0 80.5 11t25.5 33q0 25 -24 34.5t-49 9.5q-39 0 -66.5 -13.5t-45.5 -31.5l-56 70q17 20 45.5 32t63 19t67.5 7q52 0 90 -15
t59.5 -42t21.5 -61t-22 -57.5t-60 -31.5q43 -7 67.5 -38.5t24.5 -72.5q0 -44 -26 -71t-67.5 -40t-90.5 -13z" />
    <glyph glyph-name="acute" unicode="&#xb4;" horiz-adv-x="269" 
d="M148 572l-102 28l52 130h145z" />
    <glyph glyph-name="uni00B5" unicode="&#xb5;" horiz-adv-x="684" 
d="M76 525h160v-301q0 -48 19 -73.5t58 -25.5q19 0 39 7.5t39 24.5t34 44v324h160v-345q0 -24 9 -33.5t31 -11.5v-135q-24 -4 -42.5 -6t-32.5 -2q-42 0 -67 18t-31 51l-3 30q-8 -19 -30.5 -43t-53 -41t-62.5 -17q-24 0 -40.5 9t-25.5 20.5t-11 18.5l10 -251h-160v738z" />
    <glyph glyph-name="paragraph" unicode="&#xb6;" horiz-adv-x="679" 
d="M34 451q0 124 74.5 191.5t207.5 67.5h317v-119h-70v-671h-136v279h-41v-279h-136v279q-64 0 -113 31.5t-76 88.5t-27 132zM167 455q0 -40 11.5 -70t30 -47.5t41.5 -20.5v274q-38 -3 -60.5 -40.5t-22.5 -95.5zM427 591h-41v-274h41v274z" />
    <glyph glyph-name="periodcentered" unicode="&#xb7;" horiz-adv-x="239" 
d="M54 240v166h131v-166h-131z" />
    <glyph glyph-name="cedilla" unicode="&#xb8;" horiz-adv-x="343" 
d="M148 -210q-28 0 -59.5 8t-62.5 24l38 83q14 -10 28 -15t29 -5q21 0 34.5 11t13.5 31t-12.5 37.5t-36.5 35.5l52 32q39 -27 65.5 -59t26.5 -77q0 -43 -29 -74.5t-87 -31.5z" />
    <glyph glyph-name="uni00B9" unicode="&#xb9;" horiz-adv-x="309" 
d="M288 476v-92h-240v92h77v243q-7 -9 -23.5 -21.5t-35.5 -21.5t-35 -9v93q21 0 42.5 14t36.5 28.5t15 15.5h94v-342h69z" />
    <glyph glyph-name="ordmasculine" unicode="&#xba;" horiz-adv-x="441" 
d="M220 336q-59 0 -101.5 26.5t-64.5 69.5t-22 93q0 51 22 94t64.5 69t101.5 26q61 0 103 -26t64 -69t22 -94q0 -50 -22 -93t-64 -69.5t-103 -26.5zM147 525q0 -27 10 -48t26.5 -32.5t36.5 -11.5q22 0 38 11.5t26 32.5t10 48q0 28 -10 48.5t-26.5 32t-37.5 11.5
q-20 0 -36.5 -11.5t-26.5 -32.5t-10 -48z" />
    <glyph glyph-name="guillemotright" unicode="&#xbb;" horiz-adv-x="679" 
d="M646 217l-270 -178v129l144 91l-144 98v129l270 -193v-76zM327 217l-270 -178v129l144 91l-144 98v129l270 -193v-76z" />
    <glyph glyph-name="onequarter" unicode="&#xbc;" horiz-adv-x="916" 
d="M288 389v-92h-240v92h77v243q-7 -9 -23.5 -21.5t-35.5 -21.5t-35 -9v93q21 0 42.5 14t36.5 28.5t15 15.5h94v-342h69zM113 56l282 324l256 339l72 -64l-273 -316l-266 -348zM727 1v95h-211v84l247 251h71v-259h55v-76h-55v-95h-107zM604 172h127v132z" />
    <glyph glyph-name="onehalf" unicode="&#xbd;" horiz-adv-x="958" 
d="M556 0q0 53 11.5 88.5t39.5 61t79 48.5q29 13 60 25.5t51.5 29.5t20.5 42q0 26 -22 41t-58 15q-28 0 -51 -8.5t-40.5 -20.5t-30.5 -25l-58 69q13 16 40 32.5t66 26.5t85 10q84 0 127.5 -36t43.5 -98q0 -34 -12.5 -58.5t-32.5 -41t-41.5 -26.5t-40.5 -16q-27 -8 -46 -18.5
t-28.5 -22t-9.5 -27.5h212v-91h-365zM288 389v-92h-240v92h77v243q-7 -9 -23.5 -21.5t-35.5 -21.5t-35 -9v93q21 0 42.5 14t36.5 28.5t15 15.5h94v-342h69zM113 56l282 324l256 339l72 -64l-273 -316l-266 -348z" />
    <glyph glyph-name="threequarters" unicode="&#xbe;" horiz-adv-x="1020" 
d="M198 289q-60 0 -107.5 19t-64.5 57l48 63q11 -12 27.5 -23.5t39.5 -18t52 -6.5q36 0 62 11.5t26 37.5q0 25 -28.5 37t-92.5 12h-24v82h24q55 0 80.5 10.5t25.5 33.5q0 25 -24 34.5t-49 9.5q-39 0 -66.5 -13.5t-45.5 -31.5l-56 70q17 20 45.5 32t63 19t67.5 7q52 0 90 -15
t59.5 -42t21.5 -61t-22 -57.5t-60 -31.5q43 -7 67.5 -38.5t24.5 -72.5q0 -44 -26 -71t-67.5 -40t-90.5 -13zM218 56l282 324l256 339l72 -64l-273 -316l-266 -348zM832 1v95h-211v84l247 251h71v-259h55v-76h-55v-95h-107zM709 172h127v132z" />
    <glyph glyph-name="questiondown" unicode="&#xbf;" horiz-adv-x="483" 
d="M376 261q0 -30 -5.5 -57.5t-22.5 -51.5t-52 -43q-13 -8 -34.5 -18.5t-42.5 -25.5t-35.5 -35t-14.5 -44q0 -22 11 -37.5t29 -24t38 -8.5q27 0 46.5 12t33 29t22.5 31l103 -72q-18 -40 -49.5 -69t-72.5 -44.5t-88 -15.5q-38 0 -75.5 11t-68.5 35t-50 62.5t-19 91.5
q0 29 6 52.5t18 43t29.5 36t40.5 31.5q28 18 56 32.5t47 32.5t19 46h131zM373 506v-150h-131v150h131z" />
    <glyph glyph-name="Agrave" unicode="&#xc0;" horiz-adv-x="670" 
d="M247 710h177l244 -710h-168l-55 159h-221l-54 -159h-168zM418 272l-83 273l-85 -273h168zM199 915h145l52 -130l-101 -28z" />
    <glyph glyph-name="Aacute" unicode="&#xc1;" horiz-adv-x="670" 
d="M247 710h177l244 -710h-168l-55 159h-221l-54 -159h-168zM418 272l-83 273l-85 -273h168zM387 757l-102 28l52 130h145z" />
    <glyph glyph-name="Acircumflex" unicode="&#xc2;" horiz-adv-x="670" 
d="M247 710h177l244 -710h-168l-55 159h-221l-54 -159h-168zM418 272l-83 273l-85 -273h168zM168 807l110 108h115l109 -108l-82 -36l-85 63l-85 -63z" />
    <glyph glyph-name="Atilde" unicode="&#xc3;" horiz-adv-x="670" 
d="M247 710h177l244 -710h-168l-55 159h-221l-54 -159h-168zM418 272l-83 273l-85 -273h168zM403 773q-30 0 -52 11.5t-40 23t-41 11.5q-22 0 -32 -11t-12.5 -23t-2.5 -14h-86q0 11 6.5 34.5t22 48t39.5 42t59 17.5q32 0 52.5 -12t39 -24t41.5 -12q24 0 34.5 11.5t14 24.5
t3.5 14h86q0 -8 -7 -30.5t-22.5 -48t-40.5 -44.5t-62 -19z" />
    <glyph glyph-name="Adieresis" unicode="&#xc4;" horiz-adv-x="670" 
d="M247 710h177l244 -710h-168l-55 159h-221l-54 -159h-168zM418 272l-83 273l-85 -273h168zM165 779v129h132v-129h-132zM375 779v129h132v-129h-132z" />
    <glyph glyph-name="Aring" unicode="&#xc5;" horiz-adv-x="670" 
d="M247 710h177l244 -710h-168l-55 159h-221l-54 -159h-168zM418 272l-83 273l-85 -273h168zM225 834q0 43 30.5 68t80.5 25t80 -25t30 -68q0 -41 -30 -66t-80 -25t-80.5 25t-30.5 66zM336 875q-18 0 -30 -11.5t-12 -28.5q0 -16 12 -28.5t30 -12.5q17 0 29.5 12t12.5 29
t-12 28.5t-30 11.5z" />
    <glyph glyph-name="AE" unicode="&#xc6;" horiz-adv-x="968" 
d="M412 710h515v-144h-309v-133h255v-143h-255v-146h318v-144h-481v159h-215l-91 -159h-175zM442 303v224l-133 -224h133z" />
    <glyph glyph-name="Ccedilla" unicode="&#xc7;" horiz-adv-x="688" 
d="M27 361q0 65 24 127.5t70 113.5t112 81.5t150 30.5q100 0 173.5 -43t109.5 -112l-126 -88q-16 38 -42.5 59t-58 29.5t-60.5 8.5q-47 0 -82 -18.5t-58 -49.5t-34 -69t-11 -76q0 -42 13 -81t37.5 -69t59.5 -47.5t77 -17.5q30 0 61 10t57.5 31.5t40.5 56.5l134 -79
q-21 -52 -69 -89t-108.5 -56.5t-119.5 -19.5q-77 0 -141.5 31.5t-111 84t-72 118t-25.5 133.5zM364 -210q-28 0 -59.5 8t-62.5 24l38 83q14 -10 28 -15t29 -5q21 0 34.5 11t13.5 31t-12.5 37.5t-36.5 35.5l52 32q39 -27 65.5 -59t26.5 -77q0 -43 -29 -74.5t-87 -31.5z" />
    <glyph glyph-name="Egrave" unicode="&#xc8;" horiz-adv-x="599" 
d="M567 144v-144h-499v710h490v-144h-326v-138h280v-133h-280v-151h335zM185 915h145l52 -130l-101 -28z" />
    <glyph glyph-name="Eacute" unicode="&#xc9;" horiz-adv-x="599" 
d="M567 144v-144h-499v710h490v-144h-326v-138h280v-133h-280v-151h335zM373 757l-102 28l52 130h145z" />
    <glyph glyph-name="Ecircumflex" unicode="&#xca;" horiz-adv-x="599" 
d="M567 144v-144h-499v710h490v-144h-326v-138h280v-133h-280v-151h335zM154 807l110 108h115l109 -108l-82 -36l-85 63l-85 -63z" />
    <glyph glyph-name="Edieresis" unicode="&#xcb;" horiz-adv-x="599" 
d="M567 144v-144h-499v710h490v-144h-326v-138h280v-133h-280v-151h335zM150 779v129h132v-129h-132zM360 779v129h132v-129h-132z" />
    <glyph glyph-name="Igrave" unicode="&#xcc;" horiz-adv-x="300" 
d="M68 0v710h164v-710h-164zM13 915h145l52 -130l-101 -28z" />
    <glyph glyph-name="Iacute" unicode="&#xcd;" horiz-adv-x="300" 
d="M68 0v710h164v-710h-164zM202 757l-102 28l52 130h145z" />
    <glyph glyph-name="Icircumflex" unicode="&#xce;" horiz-adv-x="300" 
d="M68 0v710h164v-710h-164zM-17 807l110 108h115l109 -108l-82 -36l-85 63l-85 -63z" />
    <glyph glyph-name="Idieresis" unicode="&#xcf;" horiz-adv-x="300" 
d="M68 0v710h164v-710h-164zM-21 779v129h132v-129h-132zM189 779v129h132v-129h-132z" />
    <glyph glyph-name="Eth" unicode="&#xd0;" horiz-adv-x="721" 
d="M30 298v118h335v-118h-335zM73 0v710h265q117 0 195.5 -47.5t118 -128t39.5 -178.5q0 -108 -43.5 -188t-123 -124t-186.5 -44h-265zM525 356q0 62 -22 109.5t-64 74t-101 26.5h-101v-422h101q60 0 101.5 27.5t63.5 76t22 108.5z" />
    <glyph glyph-name="Ntilde" unicode="&#xd1;" horiz-adv-x="759" 
d="M232 406v-406h-164v710h130l329 -418v418h164v-710h-134zM445 772q-30 0 -52 11.5t-40 23t-41 11.5q-22 0 -32 -11t-12.5 -23t-2.5 -14h-86q0 11 6.5 34.5t22 48t39.5 42t59 17.5q32 0 52.5 -12t39 -24t41.5 -12q24 0 34.5 11.5t14 24.5t3.5 14h86q0 -8 -7 -30.5
t-22.5 -48t-40.5 -44.5t-62 -19z" />
    <glyph glyph-name="Ograve" unicode="&#xd2;" horiz-adv-x="760" 
d="M379 -6q-80 0 -144.5 30.5t-111 82t-71.5 116t-25 133.5q0 71 26.5 135t74 114.5t112.5 79.5t142 29q79 0 143.5 -30.5t111 -82.5t71.5 -116.5t25 -131.5q0 -71 -26 -135t-74 -114.5t-112.5 -80t-141.5 -29.5zM194 354q0 -41 12 -79.5t35.5 -68.5t58.5 -48t80 -18
q47 0 82 18.5t58 49.5t34.5 69.5t11.5 78.5q0 41 -12 79t-36 68.5t-59 47.5t-79 17q-47 0 -81.5 -18t-58 -48.5t-35 -69t-11.5 -78.5zM246 915h145l52 -130l-101 -28z" />
    <glyph glyph-name="Oacute" unicode="&#xd3;" horiz-adv-x="760" 
d="M379 -6q-80 0 -144.5 30.5t-111 82t-71.5 116t-25 133.5q0 71 26.5 135t74 114.5t112.5 79.5t142 29q79 0 143.5 -30.5t111 -82.5t71.5 -116.5t25 -131.5q0 -71 -26 -135t-74 -114.5t-112.5 -80t-141.5 -29.5zM194 354q0 -41 12 -79.5t35.5 -68.5t58.5 -48t80 -18
q47 0 82 18.5t58 49.5t34.5 69.5t11.5 78.5q0 41 -12 79t-36 68.5t-59 47.5t-79 17q-47 0 -81.5 -18t-58 -48.5t-35 -69t-11.5 -78.5zM434 757l-102 28l52 130h145z" />
    <glyph glyph-name="Ocircumflex" unicode="&#xd4;" horiz-adv-x="760" 
d="M379 -6q-80 0 -144.5 30.5t-111 82t-71.5 116t-25 133.5q0 71 26.5 135t74 114.5t112.5 79.5t142 29q79 0 143.5 -30.5t111 -82.5t71.5 -116.5t25 -131.5q0 -71 -26 -135t-74 -114.5t-112.5 -80t-141.5 -29.5zM194 354q0 -41 12 -79.5t35.5 -68.5t58.5 -48t80 -18
q47 0 82 18.5t58 49.5t34.5 69.5t11.5 78.5q0 41 -12 79t-36 68.5t-59 47.5t-79 17q-47 0 -81.5 -18t-58 -48.5t-35 -69t-11.5 -78.5zM215 807l110 108h115l109 -108l-82 -36l-85 63l-85 -63z" />
    <glyph glyph-name="Otilde" unicode="&#xd5;" horiz-adv-x="760" 
d="M379 -6q-80 0 -144.5 30.5t-111 82t-71.5 116t-25 133.5q0 71 26.5 135t74 114.5t112.5 79.5t142 29q79 0 143.5 -30.5t111 -82.5t71.5 -116.5t25 -131.5q0 -71 -26 -135t-74 -114.5t-112.5 -80t-141.5 -29.5zM194 354q0 -41 12 -79.5t35.5 -68.5t58.5 -48t80 -18
q47 0 82 18.5t58 49.5t34.5 69.5t11.5 78.5q0 41 -12 79t-36 68.5t-59 47.5t-79 17q-47 0 -81.5 -18t-58 -48.5t-35 -69t-11.5 -78.5zM449 773q-30 0 -52 11.5t-40 23t-41 11.5q-22 0 -32 -11t-12.5 -23t-2.5 -14h-86q0 11 6.5 34.5t22 48t39.5 42t59 17.5q32 0 52.5 -12
t39 -24t41.5 -12q24 0 34.5 11.5t14 24.5t3.5 14h86q0 -8 -7 -30.5t-22.5 -48t-40.5 -44.5t-62 -19z" />
    <glyph glyph-name="Odieresis" unicode="&#xd6;" horiz-adv-x="760" 
d="M379 -6q-80 0 -144.5 30.5t-111 82t-71.5 116t-25 133.5q0 71 26.5 135t74 114.5t112.5 79.5t142 29q79 0 143.5 -30.5t111 -82.5t71.5 -116.5t25 -131.5q0 -71 -26 -135t-74 -114.5t-112.5 -80t-141.5 -29.5zM194 354q0 -41 12 -79.5t35.5 -68.5t58.5 -48t80 -18
q47 0 82 18.5t58 49.5t34.5 69.5t11.5 78.5q0 41 -12 79t-36 68.5t-59 47.5t-79 17q-47 0 -81.5 -18t-58 -48.5t-35 -69t-11.5 -78.5zM211 779v129h132v-129h-132zM421 779v129h132v-129h-132z" />
    <glyph glyph-name="multiply" unicode="&#xd7;" horiz-adv-x="484" 
d="M437 181l-100 -99l-96 95l-95 -95l-99 99l94 95l-89 91l100 99l90 -90l90 90l99 -99l-90 -90z" />
    <glyph glyph-name="Oslash" unicode="&#xd8;" horiz-adv-x="759" 
d="M379 -6q-80 0 -144.5 30.5t-111 82t-71.5 116t-25 133.5q0 71 26.5 135t74 114.5t112.5 79.5t142 29q79 0 143.5 -30.5t111 -82.5t71.5 -116.5t25 -131.5q0 -71 -26 -135t-74 -114.5t-112.5 -80t-141.5 -29.5zM194 354q0 -41 12 -79.5t35.5 -68.5t58.5 -48t80 -18
q47 0 82 18.5t58 49.5t34.5 69.5t11.5 78.5q0 41 -12 79t-36 68.5t-59 47.5t-79 17q-47 0 -81.5 -18t-58 -48.5t-35 -69t-11.5 -78.5zM721 710l-505 -710h-177l505 710h177z" />
    <glyph glyph-name="Ugrave" unicode="&#xd9;" horiz-adv-x="747" 
d="M373 -6q-85 0 -145 28.5t-97.5 78t-55 113t-17.5 133.5v363h164v-363q0 -40 8 -77.5t26 -66.5t46.5 -46t70.5 -17q43 0 72 17.5t46 47t25 66.5t8 76v363h164v-363q0 -74 -18.5 -138t-56.5 -112.5t-97.5 -75.5t-142.5 -27zM237 915h145l52 -130l-101 -28z" />
    <glyph glyph-name="Uacute" unicode="&#xda;" horiz-adv-x="747" 
d="M373 -6q-85 0 -145 28.5t-97.5 78t-55 113t-17.5 133.5v363h164v-363q0 -40 8 -77.5t26 -66.5t46.5 -46t70.5 -17q43 0 72 17.5t46 47t25 66.5t8 76v363h164v-363q0 -74 -18.5 -138t-56.5 -112.5t-97.5 -75.5t-142.5 -27zM425 757l-102 28l52 130h145z" />
    <glyph glyph-name="Ucircumflex" unicode="&#xdb;" horiz-adv-x="747" 
d="M373 -6q-85 0 -145 28.5t-97.5 78t-55 113t-17.5 133.5v363h164v-363q0 -40 8 -77.5t26 -66.5t46.5 -46t70.5 -17q43 0 72 17.5t46 47t25 66.5t8 76v363h164v-363q0 -74 -18.5 -138t-56.5 -112.5t-97.5 -75.5t-142.5 -27zM206 807l110 108h115l109 -108l-82 -36l-85 63
l-85 -63z" />
    <glyph glyph-name="Udieresis" unicode="&#xdc;" horiz-adv-x="747" 
d="M373 -6q-85 0 -145 28.5t-97.5 78t-55 113t-17.5 133.5v363h164v-363q0 -40 8 -77.5t26 -66.5t46.5 -46t70.5 -17q43 0 72 17.5t46 47t25 66.5t8 76v363h164v-363q0 -74 -18.5 -138t-56.5 -112.5t-97.5 -75.5t-142.5 -27zM202 779v129h132v-129h-132zM412 779v129h132
v-129h-132z" />
    <glyph glyph-name="Yacute" unicode="&#xdd;" horiz-adv-x="663" 
d="M178 710l153 -314l155 314h179l-253 -468v-242h-163v244l-249 466h178zM382 757l-102 28l52 130h145z" />
    <glyph glyph-name="Thorn" unicode="&#xde;" horiz-adv-x="605" 
d="M355 586q51 0 93.5 -20.5t73.5 -54.5t48 -77t17 -87q0 -62 -28.5 -117t-79 -89.5t-118.5 -34.5h-129v-106h-164v710h164v-124h123zM352 250q21 0 36.5 12.5t25 34.5t9.5 50q0 29 -11 50.5t-28.5 33.5t-36.5 12h-115v-193h120z" />
    <glyph glyph-name="germandbls" unicode="&#xdf;" horiz-adv-x="560" 
d="M250 141q50 0 84 22t34 68q0 29 -14 48.5t-35.5 29.5t-43.5 10h-22v143h21q19 0 32 7.5t20 20.5t7 30q0 25 -12 37.5t-26.5 17t-23.5 4.5q-26 0 -40.5 -14.5t-19 -33.5t-4.5 -34v-497h-152v525q0 55 30.5 97.5t82.5 67t117 24.5q58 0 103 -19.5t71 -57t26 -89.5
q0 -34 -11 -63.5t-29 -51t-40 -30.5q61 -20 96 -70t35 -121q0 -61 -24 -103t-65 -67t-92 -36t-105 -12v147z" />
    <glyph glyph-name="agrave" unicode="&#xe0;" horiz-adv-x="586" 
d="M22 157q0 52 29 91t80 61.5t117 22.5q32 0 63 -5.5t54 -15.5v23q0 43 -26 66t-79 23q-44 0 -82.5 -15t-81.5 -43l-48 102q52 34 108.5 51t119.5 17q118 0 183.5 -56.5t65.5 -163.5v-137q0 -24 7.5 -33.5t26.5 -11.5v-133q-20 -4 -37.5 -6t-30.5 -2q-45 0 -68.5 18
t-29.5 49l-3 23q-35 -45 -83.5 -68.5t-101.5 -23.5q-52 0 -93.5 22t-65.5 60t-24 85zM340 137q11 9 18 20t7 21v47q-20 8 -44.5 12.5t-45.5 4.5q-44 0 -73 -19.5t-29 -51.5q0 -18 10 -33t27.5 -24t41.5 -9t48 9t40 23zM140 730h145l52 -130l-101 -28z" />
    <glyph glyph-name="aacute" unicode="&#xe1;" horiz-adv-x="586" 
d="M22 157q0 52 29 91t80 61.5t117 22.5q32 0 63 -5.5t54 -15.5v23q0 43 -26 66t-79 23q-44 0 -82.5 -15t-81.5 -43l-48 102q52 34 108.5 51t119.5 17q118 0 183.5 -56.5t65.5 -163.5v-137q0 -24 7.5 -33.5t26.5 -11.5v-133q-20 -4 -37.5 -6t-30.5 -2q-45 0 -68.5 18
t-29.5 49l-3 23q-35 -45 -83.5 -68.5t-101.5 -23.5q-52 0 -93.5 22t-65.5 60t-24 85zM340 137q11 9 18 20t7 21v47q-20 8 -44.5 12.5t-45.5 4.5q-44 0 -73 -19.5t-29 -51.5q0 -18 10 -33t27.5 -24t41.5 -9t48 9t40 23zM328 572l-102 28l52 130h145z" />
    <glyph glyph-name="acircumflex" unicode="&#xe2;" horiz-adv-x="586" 
d="M22 157q0 52 29 91t80 61.5t117 22.5q32 0 63 -5.5t54 -15.5v23q0 43 -26 66t-79 23q-44 0 -82.5 -15t-81.5 -43l-48 102q52 34 108.5 51t119.5 17q118 0 183.5 -56.5t65.5 -163.5v-137q0 -24 7.5 -33.5t26.5 -11.5v-133q-20 -4 -37.5 -6t-30.5 -2q-45 0 -68.5 18
t-29.5 49l-3 23q-35 -45 -83.5 -68.5t-101.5 -23.5q-52 0 -93.5 22t-65.5 60t-24 85zM340 137q11 9 18 20t7 21v47q-20 8 -44.5 12.5t-45.5 4.5q-44 0 -73 -19.5t-29 -51.5q0 -18 10 -33t27.5 -24t41.5 -9t48 9t40 23zM109 622l110 108h115l109 -108l-82 -36l-85 63l-85 -63
z" />
    <glyph glyph-name="atilde" unicode="&#xe3;" horiz-adv-x="586" 
d="M22 157q0 52 29 91t80 61.5t117 22.5q32 0 63 -5.5t54 -15.5v23q0 43 -26 66t-79 23q-44 0 -82.5 -15t-81.5 -43l-48 102q52 34 108.5 51t119.5 17q118 0 183.5 -56.5t65.5 -163.5v-137q0 -24 7.5 -33.5t26.5 -11.5v-133q-20 -4 -37.5 -6t-30.5 -2q-45 0 -68.5 18
t-29.5 49l-3 23q-35 -45 -83.5 -68.5t-101.5 -23.5q-52 0 -93.5 22t-65.5 60t-24 85zM340 137q11 9 18 20t7 21v47q-20 8 -44.5 12.5t-45.5 4.5q-44 0 -73 -19.5t-29 -51.5q0 -18 10 -33t27.5 -24t41.5 -9t48 9t40 23zM343 588q-30 0 -52 11.5t-40 23t-41 11.5
q-22 0 -32 -11t-12.5 -23t-2.5 -14h-86q0 11 6.5 34.5t22 48t39.5 42t59 17.5q32 0 52.5 -12t39 -24t41.5 -12q24 0 34.5 11.5t14 24.5t3.5 14h86q0 -8 -7 -30.5t-22.5 -48t-40.5 -44.5t-62 -19z" />
    <glyph glyph-name="adieresis" unicode="&#xe4;" horiz-adv-x="586" 
d="M22 157q0 52 29 91t80 61.5t117 22.5q32 0 63 -5.5t54 -15.5v23q0 43 -26 66t-79 23q-44 0 -82.5 -15t-81.5 -43l-48 102q52 34 108.5 51t119.5 17q118 0 183.5 -56.5t65.5 -163.5v-137q0 -24 7.5 -33.5t26.5 -11.5v-133q-20 -4 -37.5 -6t-30.5 -2q-45 0 -68.5 18
t-29.5 49l-3 23q-35 -45 -83.5 -68.5t-101.5 -23.5q-52 0 -93.5 22t-65.5 60t-24 85zM340 137q11 9 18 20t7 21v47q-20 8 -44.5 12.5t-45.5 4.5q-44 0 -73 -19.5t-29 -51.5q0 -18 10 -33t27.5 -24t41.5 -9t48 9t40 23zM105 594v129h132v-129h-132zM315 594v129h132v-129
h-132z" />
    <glyph glyph-name="aring" unicode="&#xe5;" horiz-adv-x="586" 
d="M22 157q0 52 29 91t80 61.5t117 22.5q32 0 63 -5.5t54 -15.5v23q0 43 -26 66t-79 23q-44 0 -82.5 -15t-81.5 -43l-48 102q52 34 108.5 51t119.5 17q118 0 183.5 -56.5t65.5 -163.5v-137q0 -24 7.5 -33.5t26.5 -11.5v-133q-20 -4 -37.5 -6t-30.5 -2q-45 0 -68.5 18
t-29.5 49l-3 23q-35 -45 -83.5 -68.5t-101.5 -23.5q-52 0 -93.5 22t-65.5 60t-24 85zM340 137q11 9 18 20t7 21v47q-20 8 -44.5 12.5t-45.5 4.5q-44 0 -73 -19.5t-29 -51.5q0 -18 10 -33t27.5 -24t41.5 -9t48 9t40 23zM165 649q0 43 30.5 68t80.5 25t80 -25t30 -68
q0 -41 -30 -66t-80 -25t-80.5 25t-30.5 66zM276 690q-18 0 -30 -11.5t-12 -28.5q0 -16 12 -28.5t30 -12.5q17 0 29.5 12t12.5 29t-12 28.5t-30 11.5z" />
    <glyph glyph-name="ae" unicode="&#xe6;" horiz-adv-x="939" 
d="M203 -10q-51 0 -92 22t-65 60t-24 85q0 52 29 91t79.5 61.5t116.5 22.5q32 0 61 -5.5t52 -14.5q0 7 1 15t3 15q-3 41 -28 62t-76 21q-43 0 -82 -14.5t-82 -43.5l-47 100q103 68 227 68q60 0 106 -16.5t77 -47.5q34 29 79.5 46.5t101.5 17.5q90 0 152.5 -38t96 -99.5
t33.5 -135.5q0 -12 -1.5 -25.5t-3.5 -23.5h-390q2 -35 19.5 -59t44 -36.5t55.5 -12.5q36 0 68 17t43 46l136 -38q-20 -41 -56 -72.5t-85.5 -49.5t-110.5 -18q-76 0 -134.5 29t-93.5 76q-25 -37 -60.5 -60t-74.5 -34t-75 -11zM250 105q26 0 51 9t41 24q22 17 23 37
q-2 12 -3.5 26t-1.5 27q-20 7 -43 11t-43 4q-43 0 -72 -20t-29 -52q0 -18 10 -33t27.5 -24t39.5 -9zM753 310q-3 34 -18.5 58t-40 38t-56.5 14q-31 0 -56 -14t-40 -38t-18 -58h229z" />
    <glyph glyph-name="ccedilla" unicode="&#xe7;" horiz-adv-x="570" 
d="M306 -10q-67 0 -119 22t-88.5 60t-55.5 87t-19 104q0 72 33.5 134t96.5 100t152 38q90 0 152.5 -38.5t93.5 -100.5l-156 -47q-15 24 -38.5 37t-52.5 13q-33 0 -59.5 -17t-42 -47t-15.5 -72q0 -41 16 -72t42 -48.5t59 -17.5q20 0 37.5 6.5t32 18.5t22.5 27l156 -48
q-19 -40 -54.5 -71.5t-83.5 -49.5t-109 -18zM293 -210q-28 0 -59.5 8t-62.5 24l38 83q14 -10 28 -15t29 -5q21 0 34.5 11t13.5 31t-12.5 37.5t-36.5 35.5l52 32q39 -27 65.5 -59t26.5 -77q0 -43 -29 -74.5t-87 -31.5z" />
    <glyph glyph-name="egrave" unicode="&#xe8;" horiz-adv-x="604" 
d="M306 -10q-67 0 -119 21.5t-88.5 58.5t-55.5 85.5t-19 101.5q0 76 33.5 138.5t96.5 101t152 38.5t151.5 -38t95.5 -99.5t33 -133.5q0 -14 -1.5 -27.5t-2.5 -23.5h-388q3 -35 19.5 -59t42.5 -36.5t55 -12.5q36 0 67.5 17t43.5 46l136 -38q-20 -41 -56.5 -72.5t-86 -49.5
t-109.5 -18zM190 311h228q-4 33 -19 57.5t-40 38t-55 13.5q-31 0 -55.5 -13.5t-39.5 -38t-19 -57.5zM168 730h145l52 -130l-101 -28z" />
    <glyph glyph-name="eacute" unicode="&#xe9;" horiz-adv-x="604" 
d="M306 -10q-67 0 -119 21.5t-88.5 58.5t-55.5 85.5t-19 101.5q0 76 33.5 138.5t96.5 101t152 38.5t151.5 -38t95.5 -99.5t33 -133.5q0 -14 -1.5 -27.5t-2.5 -23.5h-388q3 -35 19.5 -59t42.5 -36.5t55 -12.5q36 0 67.5 17t43.5 46l136 -38q-20 -41 -56.5 -72.5t-86 -49.5
t-109.5 -18zM190 311h228q-4 33 -19 57.5t-40 38t-55 13.5q-31 0 -55.5 -13.5t-39.5 -38t-19 -57.5zM356 572l-102 28l52 130h145z" />
    <glyph glyph-name="ecircumflex" unicode="&#xea;" horiz-adv-x="604" 
d="M306 -10q-67 0 -119 21.5t-88.5 58.5t-55.5 85.5t-19 101.5q0 76 33.5 138.5t96.5 101t152 38.5t151.5 -38t95.5 -99.5t33 -133.5q0 -14 -1.5 -27.5t-2.5 -23.5h-388q3 -35 19.5 -59t42.5 -36.5t55 -12.5q36 0 67.5 17t43.5 46l136 -38q-20 -41 -56.5 -72.5t-86 -49.5
t-109.5 -18zM190 311h228q-4 33 -19 57.5t-40 38t-55 13.5q-31 0 -55.5 -13.5t-39.5 -38t-19 -57.5zM137 622l110 108h115l109 -108l-82 -36l-85 63l-85 -63z" />
    <glyph glyph-name="edieresis" unicode="&#xeb;" horiz-adv-x="604" 
d="M306 -10q-67 0 -119 21.5t-88.5 58.5t-55.5 85.5t-19 101.5q0 76 33.5 138.5t96.5 101t152 38.5t151.5 -38t95.5 -99.5t33 -133.5q0 -14 -1.5 -27.5t-2.5 -23.5h-388q3 -35 19.5 -59t42.5 -36.5t55 -12.5q36 0 67.5 17t43.5 46l136 -38q-20 -41 -56.5 -72.5t-86 -49.5
t-109.5 -18zM190 311h228q-4 33 -19 57.5t-40 38t-55 13.5q-31 0 -55.5 -13.5t-39.5 -38t-19 -57.5zM134 594v129h132v-129h-132zM344 594v129h132v-129h-132z" />
    <glyph glyph-name="igrave" unicode="&#xec;" horiz-adv-x="270" 
d="M55 0v525h160v-525h-160zM-2 730h145l52 -130l-101 -28z" />
    <glyph glyph-name="iacute" unicode="&#xed;" horiz-adv-x="270" 
d="M55 0v525h160v-525h-160zM187 572l-102 28l52 130h145z" />
    <glyph glyph-name="icircumflex" unicode="&#xee;" horiz-adv-x="270" 
d="M55 0v525h160v-525h-160zM-32 622l110 108h115l109 -108l-82 -36l-85 63l-85 -63z" />
    <glyph glyph-name="idieresis" unicode="&#xef;" horiz-adv-x="270" 
d="M55 0v525h160v-525h-160zM-36 594v129h132v-129h-132zM174 594v129h132v-129h-132z" />
    <glyph glyph-name="eth" unicode="&#xf0;" horiz-adv-x="617" 
d="M589 291q0 -70 -20.5 -126t-58 -95t-89.5 -59.5t-115 -20.5q-80 0 -143 31.5t-99.5 87t-36.5 125.5q0 49 18.5 92.5t51 76t76 51t94.5 18.5q46 0 88 -17t69 -47q-11 48 -33.5 91t-58 82.5t-86 76.5t-118.5 72h199q62 -30 110.5 -77.5t82 -107t51.5 -124.5t18 -130z
M191 234q0 -31 15 -56t41 -39t60 -14q35 0 61 14.5t41 40t15 56.5q0 32 -14.5 56t-41 38t-60.5 14t-60.5 -14t-41.5 -38.5t-15 -57.5zM537 651l-114 -61l-49 -15l-110 -59l-45 61l109 58l46 13l119 64z" />
    <glyph glyph-name="ntilde" unicode="&#xf1;" horiz-adv-x="612" 
d="M561 0h-160v295q0 52 -19.5 75.5t-51.5 23.5q-22 0 -45 -12t-41.5 -33t-28.5 -48v-301h-160v525h144v-88q20 31 50 53t69 33.5t85 11.5q51 0 82.5 -18.5t48 -48.5t22 -64.5t5.5 -67.5v-336zM391 588q-30 0 -52 11.5t-40 23t-41 11.5q-22 0 -32 -11t-12.5 -23t-2.5 -14
h-86q0 11 6.5 34.5t22 48t39.5 42t59 17.5q32 0 52.5 -12t39 -24t41.5 -12q24 0 34.5 11.5t14 24.5t3.5 14h86q0 -8 -7 -30.5t-22.5 -48t-40.5 -44.5t-62 -19z" />
    <glyph glyph-name="ograve" unicode="&#xf2;" horiz-adv-x="610" 
d="M305 -10q-67 0 -119.5 22t-88.5 60t-54.5 87t-18.5 103q0 55 18.5 104t54.5 87t88.5 60t119.5 22t119 -22t88 -60t55 -87t19 -104q0 -54 -19 -103t-55 -87t-88 -60t-119 -22zM188 262q0 -41 15.5 -72t41.5 -48t60 -17q33 0 59.5 17.5t41.5 48.5t15 71q0 41 -15 72
t-41.5 48t-59.5 17q-34 0 -60 -17t-41.5 -48t-15.5 -72zM168 730h145l52 -130l-101 -28z" />
    <glyph glyph-name="oacute" unicode="&#xf3;" horiz-adv-x="610" 
d="M305 -10q-67 0 -119.5 22t-88.5 60t-54.5 87t-18.5 103q0 55 18.5 104t54.5 87t88.5 60t119.5 22t119 -22t88 -60t55 -87t19 -104q0 -54 -19 -103t-55 -87t-88 -60t-119 -22zM188 262q0 -41 15.5 -72t41.5 -48t60 -17q33 0 59.5 17.5t41.5 48.5t15 71q0 41 -15 72
t-41.5 48t-59.5 17q-34 0 -60 -17t-41.5 -48t-15.5 -72zM356 572l-102 28l52 130h145z" />
    <glyph glyph-name="ocircumflex" unicode="&#xf4;" horiz-adv-x="610" 
d="M305 -10q-67 0 -119.5 22t-88.5 60t-54.5 87t-18.5 103q0 55 18.5 104t54.5 87t88.5 60t119.5 22t119 -22t88 -60t55 -87t19 -104q0 -54 -19 -103t-55 -87t-88 -60t-119 -22zM188 262q0 -41 15.5 -72t41.5 -48t60 -17q33 0 59.5 17.5t41.5 48.5t15 71q0 41 -15 72
t-41.5 48t-59.5 17q-34 0 -60 -17t-41.5 -48t-15.5 -72zM137 622l110 108h115l109 -108l-82 -36l-85 63l-85 -63z" />
    <glyph glyph-name="otilde" unicode="&#xf5;" horiz-adv-x="610" 
d="M305 -10q-67 0 -119.5 22t-88.5 60t-54.5 87t-18.5 103q0 55 18.5 104t54.5 87t88.5 60t119.5 22t119 -22t88 -60t55 -87t19 -104q0 -54 -19 -103t-55 -87t-88 -60t-119 -22zM188 262q0 -41 15.5 -72t41.5 -48t60 -17q33 0 59.5 17.5t41.5 48.5t15 71q0 41 -15 72
t-41.5 48t-59.5 17q-34 0 -60 -17t-41.5 -48t-15.5 -72zM372 588q-30 0 -52 11.5t-40 23t-41 11.5q-22 0 -32 -11t-12.5 -23t-2.5 -14h-86q0 11 6.5 34.5t22 48t39.5 42t59 17.5q32 0 52.5 -12t39 -24t41.5 -12q24 0 34.5 11.5t14 24.5t3.5 14h86q0 -8 -7 -30.5t-22.5 -48
t-40.5 -44.5t-62 -19z" />
    <glyph glyph-name="odieresis" unicode="&#xf6;" horiz-adv-x="610" 
d="M305 -10q-67 0 -119.5 22t-88.5 60t-54.5 87t-18.5 103q0 55 18.5 104t54.5 87t88.5 60t119.5 22t119 -22t88 -60t55 -87t19 -104q0 -54 -19 -103t-55 -87t-88 -60t-119 -22zM188 262q0 -41 15.5 -72t41.5 -48t60 -17q33 0 59.5 17.5t41.5 48.5t15 71q0 41 -15 72
t-41.5 48t-59.5 17q-34 0 -60 -17t-41.5 -48t-15.5 -72zM134 594v129h132v-129h-132zM344 594v129h132v-129h-132z" />
    <glyph glyph-name="divide" unicode="&#xf7;" horiz-adv-x="499" 
d="M183 426v143h134v-143h-134zM183 38v143h134v-143h-134zM48 240v127h404v-127h-404z" />
    <glyph glyph-name="oslash" unicode="&#xf8;" horiz-adv-x="610" 
d="M305 -10q-67 0 -119.5 22t-88.5 60t-54.5 87t-18.5 103t18.5 103.5t54.5 87.5t88.5 60t119.5 22t119 -22t88 -60t55 -87.5t19 -103.5t-19 -103t-55 -87t-88 -60t-119 -22zM305 125q33 0 59.5 17.5t41.5 48.5t15 71q0 41 -15 72t-41.5 48t-59.5 17q-34 0 -60 -17
t-41.5 -48t-15.5 -72t15.5 -72t41.5 -48t60 -17zM29 -5l118 144l59 -47l-84 -97h-93zM215 106l-47 42l228 281l56 -33zM473 406l-68 37l75 87h94z" />
    <glyph glyph-name="ugrave" unicode="&#xf9;" horiz-adv-x="627" 
d="M50 189v336h160v-301q0 -48 19 -73.5t54 -25.5q22 0 42 7.5t39 24.5t34 44v324h160v-347q0 -24 7.5 -33.5t26.5 -11.5v-133q-22 -4 -38.5 -6t-29.5 -2q-42 0 -67 17.5t-31 49.5l-3 32q-36 -52 -89.5 -76.5t-119.5 -24.5q-80 0 -122 51t-42 148zM168 730h145l52 -130
l-101 -28z" />
    <glyph glyph-name="uacute" unicode="&#xfa;" horiz-adv-x="627" 
d="M50 189v336h160v-301q0 -48 19 -73.5t54 -25.5q22 0 42 7.5t39 24.5t34 44v324h160v-347q0 -24 7.5 -33.5t26.5 -11.5v-133q-22 -4 -38.5 -6t-29.5 -2q-42 0 -67 17.5t-31 49.5l-3 32q-36 -52 -89.5 -76.5t-119.5 -24.5q-80 0 -122 51t-42 148zM356 572l-102 28l52 130
h145z" />
    <glyph glyph-name="ucircumflex" unicode="&#xfb;" horiz-adv-x="627" 
d="M50 189v336h160v-301q0 -48 19 -73.5t54 -25.5q22 0 42 7.5t39 24.5t34 44v324h160v-347q0 -24 7.5 -33.5t26.5 -11.5v-133q-22 -4 -38.5 -6t-29.5 -2q-42 0 -67 17.5t-31 49.5l-3 32q-36 -52 -89.5 -76.5t-119.5 -24.5q-80 0 -122 51t-42 148zM137 622l110 108h115
l109 -108l-82 -36l-85 63l-85 -63z" />
    <glyph glyph-name="udieresis" unicode="&#xfc;" horiz-adv-x="627" 
d="M50 189v336h160v-301q0 -48 19 -73.5t54 -25.5q22 0 42 7.5t39 24.5t34 44v324h160v-347q0 -24 7.5 -33.5t26.5 -11.5v-133q-22 -4 -38.5 -6t-29.5 -2q-42 0 -67 17.5t-31 49.5l-3 32q-36 -52 -89.5 -76.5t-119.5 -24.5q-80 0 -122 51t-42 148zM133 594v129h132v-129
h-132zM343 594v129h132v-129h-132z" />
    <glyph glyph-name="yacute" unicode="&#xfd;" horiz-adv-x="552" 
d="M59 -79q20 -6 37.5 -9.5t31.5 -3.5q19 0 32.5 8.5t23.5 29t18 54.5l-200 525h165l122 -361l104 361h151l-200 -610q-14 -43 -43 -76t-70 -51.5t-90 -18.5q-21 0 -41 3.5t-41 11.5v137zM341 572l-102 28l52 130h145z" />
    <glyph glyph-name="thorn" unicode="&#xfe;" horiz-adv-x="600" 
d="M577 256q0 -57 -21 -107.5t-58 -90t-85 -62.5t-102 -23q-41 0 -64 13t-28 22v-221h-164v923h164v-207q7 10 30 24t70 14q59 0 106.5 -25t81.5 -66.5t52 -92t18 -101.5zM413 259q0 38 -12.5 69t-35.5 50.5t-56 19.5q-21 0 -37.5 -8.5t-29.5 -23.5t-23 -34v-155
q0 -9 7 -19.5t19.5 -20t28.5 -15.5t32 -6q23 0 42.5 11t34 30.5t22.5 45t8 56.5z" />
    <glyph glyph-name="ydieresis" unicode="&#xff;" horiz-adv-x="552" 
d="M59 -79q20 -6 37.5 -9.5t31.5 -3.5q19 0 32.5 8.5t23.5 29t18 54.5l-200 525h165l122 -361l104 361h151l-200 -610q-14 -43 -43 -76t-70 -51.5t-90 -18.5q-21 0 -41 3.5t-41 11.5v137zM119 594v129h132v-129h-132zM329 594v129h132v-129h-132z" />
    <glyph glyph-name="Amacron" unicode="&#x100;" horiz-adv-x="670" 
d="M247 710h177l244 -710h-168l-55 159h-221l-54 -159h-168zM418 272l-83 273l-85 -273h168zM184 806v97h304v-97h-304z" />
    <glyph glyph-name="amacron" unicode="&#x101;" horiz-adv-x="586" 
d="M22 157q0 52 29 91t80 61.5t117 22.5q32 0 63 -5.5t54 -15.5v23q0 43 -26 66t-79 23q-44 0 -82.5 -15t-81.5 -43l-48 102q52 34 108.5 51t119.5 17q118 0 183.5 -56.5t65.5 -163.5v-137q0 -24 7.5 -33.5t26.5 -11.5v-133q-20 -4 -37.5 -6t-30.5 -2q-45 0 -68.5 18
t-29.5 49l-3 23q-35 -45 -83.5 -68.5t-101.5 -23.5q-52 0 -93.5 22t-65.5 60t-24 85zM340 137q11 9 18 20t7 21v47q-20 8 -44.5 12.5t-45.5 4.5q-44 0 -73 -19.5t-29 -51.5q0 -18 10 -33t27.5 -24t41.5 -9t48 9t40 23zM125 621v97h304v-97h-304z" />
    <glyph glyph-name="Abreve" unicode="&#x102;" horiz-adv-x="670" 
d="M247 710h177l244 -710h-168l-55 159h-221l-54 -159h-168zM418 272l-83 273l-85 -273h168zM335 838q23 0 40.5 22t20.5 55h83q0 -64 -40 -105.5t-104 -41.5q-63 0 -103.5 41.5t-40.5 105.5h85q0 -31 17.5 -54t41.5 -23z" />
    <glyph glyph-name="abreve" unicode="&#x103;" horiz-adv-x="586" 
d="M22 157q0 52 29 91t80 61.5t117 22.5q32 0 63 -5.5t54 -15.5v23q0 43 -26 66t-79 23q-44 0 -82.5 -15t-81.5 -43l-48 102q52 34 108.5 51t119.5 17q118 0 183.5 -56.5t65.5 -163.5v-137q0 -24 7.5 -33.5t26.5 -11.5v-133q-20 -4 -37.5 -6t-30.5 -2q-45 0 -68.5 18
t-29.5 49l-3 23q-35 -45 -83.5 -68.5t-101.5 -23.5q-52 0 -93.5 22t-65.5 60t-24 85zM340 137q11 9 18 20t7 21v47q-20 8 -44.5 12.5t-45.5 4.5q-44 0 -73 -19.5t-29 -51.5q0 -18 10 -33t27.5 -24t41.5 -9t48 9t40 23zM275 653q23 0 40.5 22t20.5 55h83q0 -64 -40 -105.5
t-104 -41.5q-63 0 -103.5 41.5t-40.5 105.5h85q0 -31 17.5 -54t41.5 -23z" />
    <glyph glyph-name="Aogonek" unicode="&#x104;" horiz-adv-x="670" 
d="M247 710h177l244 -710h-168l-55 159h-221l-54 -159h-168zM418 272l-83 273l-85 -273h168zM495 -113q0 35 27 70.5t80 64.5h52l15 -22q-36 -24 -55 -45t-19 -38t18 -27t54 -11l-30 -87q-51 6 -82.5 20t-45.5 34t-14 41z" />
    <glyph glyph-name="aogonek" unicode="&#x105;" horiz-adv-x="586" 
d="M22 157q0 52 29 91t80 61.5t117 22.5q32 0 63 -5.5t54 -15.5v23q0 43 -26 66t-79 23q-44 0 -82.5 -15t-81.5 -43l-48 102q52 34 108.5 51t119.5 17q118 0 183.5 -56.5t65.5 -163.5v-137q0 -24 7.5 -33.5t26.5 -11.5v-133q-20 -4 -37.5 -6t-30.5 -2q-45 0 -68.5 18
t-29.5 49l-3 23q-35 -45 -83.5 -68.5t-101.5 -23.5q-52 0 -93.5 22t-65.5 60t-24 85zM340 137q11 9 18 20t7 21v47q-20 8 -44.5 12.5t-45.5 4.5q-44 0 -73 -19.5t-29 -51.5q0 -18 10 -33t27.5 -24t41.5 -9t48 9t40 23zM385 -113q0 35 27 70.5t80 64.5h52l15 -22
q-36 -24 -55 -45t-19 -38t18 -27t54 -11l-30 -87q-51 6 -82.5 20t-45.5 34t-14 41z" />
    <glyph glyph-name="Cacute" unicode="&#x106;" horiz-adv-x="688" 
d="M27 361q0 65 24 127.5t70 113.5t112 81.5t150 30.5q100 0 173.5 -43t109.5 -112l-126 -88q-16 38 -42.5 59t-58 29.5t-60.5 8.5q-47 0 -82 -18.5t-58 -49.5t-34 -69t-11 -76q0 -42 13 -81t37.5 -69t59.5 -47.5t77 -17.5q30 0 61 10t57.5 31.5t40.5 56.5l134 -79
q-21 -52 -69 -89t-108.5 -56.5t-119.5 -19.5q-77 0 -141.5 31.5t-111 84t-72 118t-25.5 133.5zM434 757l-102 28l52 130h145z" />
    <glyph glyph-name="cacute" unicode="&#x107;" horiz-adv-x="570" 
d="M306 -10q-67 0 -119 22t-88.5 60t-55.5 87t-19 104q0 72 33.5 134t96.5 100t152 38q90 0 152.5 -38.5t93.5 -100.5l-156 -47q-15 24 -38.5 37t-52.5 13q-33 0 -59.5 -17t-42 -47t-15.5 -72q0 -41 16 -72t42 -48.5t59 -17.5q20 0 37.5 6.5t32 18.5t22.5 27l156 -48
q-19 -40 -54.5 -71.5t-83.5 -49.5t-109 -18zM357 572l-102 28l52 130h145z" />
    <glyph glyph-name="Ccircumflex" unicode="&#x108;" horiz-adv-x="688" 
d="M27 361q0 65 24 127.5t70 113.5t112 81.5t150 30.5q100 0 173.5 -43t109.5 -112l-126 -88q-16 38 -42.5 59t-58 29.5t-60.5 8.5q-47 0 -82 -18.5t-58 -49.5t-34 -69t-11 -76q0 -42 13 -81t37.5 -69t59.5 -47.5t77 -17.5q30 0 61 10t57.5 31.5t40.5 56.5l134 -79
q-21 -52 -69 -89t-108.5 -56.5t-119.5 -19.5q-77 0 -141.5 31.5t-111 84t-72 118t-25.5 133.5zM215 807l110 108h115l109 -108l-82 -36l-85 63l-85 -63z" />
    <glyph glyph-name="ccircumflex" unicode="&#x109;" horiz-adv-x="570" 
d="M306 -10q-67 0 -119 22t-88.5 60t-55.5 87t-19 104q0 72 33.5 134t96.5 100t152 38q90 0 152.5 -38.5t93.5 -100.5l-156 -47q-15 24 -38.5 37t-52.5 13q-33 0 -59.5 -17t-42 -47t-15.5 -72q0 -41 16 -72t42 -48.5t59 -17.5q20 0 37.5 6.5t32 18.5t22.5 27l156 -48
q-19 -40 -54.5 -71.5t-83.5 -49.5t-109 -18zM138 622l110 108h115l109 -108l-82 -36l-85 63l-85 -63z" />
    <glyph glyph-name="Cdotaccent" unicode="&#x10a;" horiz-adv-x="688" 
d="M27 361q0 65 24 127.5t70 113.5t112 81.5t150 30.5q100 0 173.5 -43t109.5 -112l-126 -88q-16 38 -42.5 59t-58 29.5t-60.5 8.5q-47 0 -82 -18.5t-58 -49.5t-34 -69t-11 -76q0 -42 13 -81t37.5 -69t59.5 -47.5t77 -17.5q30 0 61 10t57.5 31.5t40.5 56.5l134 -79
q-21 -52 -69 -89t-108.5 -56.5t-119.5 -19.5q-77 0 -141.5 31.5t-111 84t-72 118t-25.5 133.5zM311 778v137h144v-137h-144z" />
    <glyph glyph-name="cdotaccent" unicode="&#x10b;" horiz-adv-x="570" 
d="M306 -10q-67 0 -119 22t-88.5 60t-55.5 87t-19 104q0 72 33.5 134t96.5 100t152 38q90 0 152.5 -38.5t93.5 -100.5l-156 -47q-15 24 -38.5 37t-52.5 13q-33 0 -59.5 -17t-42 -47t-15.5 -72q0 -41 16 -72t42 -48.5t59 -17.5q20 0 37.5 6.5t32 18.5t22.5 27l156 -48
q-19 -40 -54.5 -71.5t-83.5 -49.5t-109 -18zM234 593v137h144v-137h-144z" />
    <glyph glyph-name="Ccaron" unicode="&#x10c;" horiz-adv-x="688" 
d="M27 361q0 65 24 127.5t70 113.5t112 81.5t150 30.5q100 0 173.5 -43t109.5 -112l-126 -88q-16 38 -42.5 59t-58 29.5t-60.5 8.5q-47 0 -82 -18.5t-58 -49.5t-34 -69t-11 -76q0 -42 13 -81t37.5 -69t59.5 -47.5t77 -17.5q30 0 61 10t57.5 31.5t40.5 56.5l134 -79
q-21 -52 -69 -89t-108.5 -56.5t-119.5 -19.5q-77 0 -141.5 31.5t-111 84t-72 118t-25.5 133.5zM297 915l85 -63l85 63l82 -37l-109 -107h-115l-110 107z" />
    <glyph glyph-name="ccaron" unicode="&#x10d;" horiz-adv-x="570" 
d="M306 -10q-67 0 -119 22t-88.5 60t-55.5 87t-19 104q0 72 33.5 134t96.5 100t152 38q90 0 152.5 -38.5t93.5 -100.5l-156 -47q-15 24 -38.5 37t-52.5 13q-33 0 -59.5 -17t-42 -47t-15.5 -72q0 -41 16 -72t42 -48.5t59 -17.5q20 0 37.5 6.5t32 18.5t22.5 27l156 -48
q-19 -40 -54.5 -71.5t-83.5 -49.5t-109 -18zM220 730l85 -63l85 63l82 -37l-109 -107h-115l-110 107z" />
    <glyph glyph-name="Dcaron" unicode="&#x10e;" horiz-adv-x="716" 
d="M68 0v710h265q117 0 195.5 -47.5t118.5 -128t40 -178.5q0 -108 -44 -188t-123.5 -124t-186.5 -44h-265zM520 356q0 62 -22 109.5t-64 74t-101 26.5h-101v-422h101q60 0 101.5 27.5t63.5 76t22 108.5zM239 915l85 -63l85 63l82 -37l-109 -107h-115l-110 107z" />
    <glyph glyph-name="dcaron" unicode="&#x10f;" horiz-adv-x="654" 
d="M25 263q0 77 30 138.5t82 97.5t120 36q55 0 100 -26.5t68 -69.5v291h160v-552q0 -24 8 -33.5t26 -11.5v-133q-42 -8 -68 -8q-41 0 -66.5 18t-31.5 50l-3 27q-28 -49 -76 -73t-101 -24q-54 0 -99.5 20.5t-79 57.5t-51.5 87t-18 108zM426 198v110q-10 27 -28.5 47t-42 32
t-47.5 12q-26 0 -47.5 -11t-37.5 -30.5t-24.5 -44.5t-8.5 -53q0 -29 9.5 -53.5t26.5 -43t40 -28.5t50 -10q17 0 33 5.5t30.5 14.5t26.5 23t20 30zM711 572l-102 28l52 130h145z" />
    <glyph glyph-name="Dcroat" unicode="&#x110;" horiz-adv-x="721" 
d="M30 298v118h335v-118h-335zM73 0v710h265q117 0 195.5 -47.5t118 -128t39.5 -178.5q0 -108 -43.5 -188t-123 -124t-186.5 -44h-265zM525 356q0 62 -22 109.5t-64 74t-101 26.5h-101v-422h101q60 0 101.5 27.5t63.5 76t22 108.5z" />
    <glyph glyph-name="dcroat" unicode="&#x111;" horiz-adv-x="654" 
d="M332 588v94h314v-94h-314zM25 263q0 77 30 138.5t82 97.5t120 36q55 0 100 -26.5t68 -69.5v291h160v-552q0 -24 8 -33.5t26 -11.5v-133q-42 -8 -68 -8q-41 0 -66.5 18t-31.5 50l-3 27q-28 -49 -76 -73t-101 -24q-54 0 -99.5 20.5t-79 57.5t-51.5 87t-18 108zM426 198v110
q-10 27 -28.5 47t-42 32t-47.5 12q-26 0 -47.5 -11t-37.5 -30.5t-24.5 -44.5t-8.5 -53q0 -29 9.5 -53.5t26.5 -43t40 -28.5t50 -10q17 0 33 5.5t30.5 14.5t26.5 23t20 30z" />
    <glyph glyph-name="Emacron" unicode="&#x112;" horiz-adv-x="599" 
d="M567 144v-144h-499v710h490v-144h-326v-138h280v-133h-280v-151h335zM170 806v97h304v-97h-304z" />
    <glyph glyph-name="emacron" unicode="&#x113;" horiz-adv-x="604" 
d="M306 -10q-67 0 -119 21.5t-88.5 58.5t-55.5 85.5t-19 101.5q0 76 33.5 138.5t96.5 101t152 38.5t151.5 -38t95.5 -99.5t33 -133.5q0 -14 -1.5 -27.5t-2.5 -23.5h-388q3 -35 19.5 -59t42.5 -36.5t55 -12.5q36 0 67.5 17t43.5 46l136 -38q-20 -41 -56.5 -72.5t-86 -49.5
t-109.5 -18zM190 311h228q-4 33 -19 57.5t-40 38t-55 13.5q-31 0 -55.5 -13.5t-39.5 -38t-19 -57.5zM154 621v97h304v-97h-304z" />
    <glyph glyph-name="Ebreve" unicode="&#x114;" horiz-adv-x="599" 
d="M567 144v-144h-499v710h490v-144h-326v-138h280v-133h-280v-151h335zM321 838q23 0 40.5 22t20.5 55h83q0 -64 -40 -105.5t-104 -41.5q-63 0 -103.5 41.5t-40.5 105.5h85q0 -31 17.5 -54t41.5 -23z" />
    <glyph glyph-name="ebreve" unicode="&#x115;" horiz-adv-x="604" 
d="M306 -10q-67 0 -119 21.5t-88.5 58.5t-55.5 85.5t-19 101.5q0 76 33.5 138.5t96.5 101t152 38.5t151.5 -38t95.5 -99.5t33 -133.5q0 -14 -1.5 -27.5t-2.5 -23.5h-388q3 -35 19.5 -59t42.5 -36.5t55 -12.5q36 0 67.5 17t43.5 46l136 -38q-20 -41 -56.5 -72.5t-86 -49.5
t-109.5 -18zM190 311h228q-4 33 -19 57.5t-40 38t-55 13.5q-31 0 -55.5 -13.5t-39.5 -38t-19 -57.5zM304 653q23 0 40.5 22t20.5 55h83q0 -64 -40 -105.5t-104 -41.5q-63 0 -103.5 41.5t-40.5 105.5h85q0 -31 17.5 -54t41.5 -23z" />
    <glyph glyph-name="Edotaccent" unicode="&#x116;" horiz-adv-x="599" 
d="M567 144v-144h-499v710h490v-144h-326v-138h280v-133h-280v-151h335zM250 778v137h144v-137h-144z" />
    <glyph glyph-name="edotaccent" unicode="&#x117;" horiz-adv-x="604" 
d="M306 -10q-67 0 -119 21.5t-88.5 58.5t-55.5 85.5t-19 101.5q0 76 33.5 138.5t96.5 101t152 38.5t151.5 -38t95.5 -99.5t33 -133.5q0 -14 -1.5 -27.5t-2.5 -23.5h-388q3 -35 19.5 -59t42.5 -36.5t55 -12.5q36 0 67.5 17t43.5 46l136 -38q-20 -41 -56.5 -72.5t-86 -49.5
t-109.5 -18zM190 311h228q-4 33 -19 57.5t-40 38t-55 13.5q-31 0 -55.5 -13.5t-39.5 -38t-19 -57.5zM233 593v137h144v-137h-144z" />
    <glyph glyph-name="Eogonek" unicode="&#x118;" horiz-adv-x="599" 
d="M567 144v-144h-499v710h490v-144h-326v-138h280v-133h-280v-151h335zM393 -113q0 35 27 70.5t80 64.5h52l15 -22q-36 -24 -55 -45t-19 -38t18 -27t54 -11l-30 -87q-51 6 -82.5 20t-45.5 34t-14 41z" />
    <glyph glyph-name="eogonek" unicode="&#x119;" horiz-adv-x="604" 
d="M306 -10q-67 0 -119 21.5t-88.5 58.5t-55.5 85.5t-19 101.5q0 76 33.5 138.5t96.5 101t152 38.5t151.5 -38t95.5 -99.5t33 -133.5q0 -14 -1.5 -27.5t-2.5 -23.5h-388q3 -35 19.5 -59t42.5 -36.5t55 -12.5q36 0 67.5 17t43.5 46l136 -38q-20 -41 -56.5 -72.5t-86 -49.5
t-109.5 -18zM190 311h228q-4 33 -19 57.5t-40 38t-55 13.5q-31 0 -55.5 -13.5t-39.5 -38t-19 -57.5zM213 -113q0 35 27 70.5t80 64.5h52l15 -22q-36 -24 -55 -45t-19 -38t18 -27t54 -11l-30 -87q-51 6 -82.5 20t-45.5 34t-14 41z" />
    <glyph glyph-name="Ecaron" unicode="&#x11a;" horiz-adv-x="599" 
d="M567 144v-144h-499v710h490v-144h-326v-138h280v-133h-280v-151h335zM236 915l85 -63l85 63l82 -37l-109 -107h-115l-110 107z" />
    <glyph glyph-name="ecaron" unicode="&#x11b;" horiz-adv-x="604" 
d="M306 -10q-67 0 -119 21.5t-88.5 58.5t-55.5 85.5t-19 101.5q0 76 33.5 138.5t96.5 101t152 38.5t151.5 -38t95.5 -99.5t33 -133.5q0 -14 -1.5 -27.5t-2.5 -23.5h-388q3 -35 19.5 -59t42.5 -36.5t55 -12.5q36 0 67.5 17t43.5 46l136 -38q-20 -41 -56.5 -72.5t-86 -49.5
t-109.5 -18zM190 311h228q-4 33 -19 57.5t-40 38t-55 13.5q-31 0 -55.5 -13.5t-39.5 -38t-19 -57.5zM219 730l85 -63l85 63l82 -37l-109 -107h-115l-110 107z" />
    <glyph glyph-name="Gcircumflex" unicode="&#x11c;" horiz-adv-x="732" 
d="M369 -5q-70 0 -132 26.5t-109 75t-73.5 115t-26.5 148.5q0 74 27 138t75 113t112.5 76.5t139.5 27.5q98 0 173 -42t111 -113l-122 -92q-24 47 -69.5 74t-98.5 27q-40 0 -73.5 -16.5t-58 -46t-37.5 -68.5t-13 -84q0 -46 14 -85t39 -67.5t59.5 -44.5t76.5 -16
q51 0 97.5 25.5t85.5 75.5v-162q-85 -85 -197 -85zM556 252h-138v119h274v-371h-136v252zM215 807l110 108h115l109 -108l-82 -36l-85 63l-85 -63z" />
    <glyph glyph-name="gcircumflex" unicode="&#x11d;" horiz-adv-x="640" 
d="M259 -2q-52 0 -95 20.5t-73.5 57t-47.5 84.5t-17 103q0 58 18 107t50.5 86.5t77 58t98.5 20.5q59 0 104 -25.5t72 -70.5v86h139v-489q0 -80 -38.5 -138t-107 -89.5t-158.5 -31.5q-84 0 -144.5 27.5t-105.5 77.5l86 87q29 -33 72 -52.5t92 -19.5q39 0 72 14t52.5 45
t19.5 80v51q-24 -43 -69.5 -66t-96.5 -23zM314 125q19 0 35.5 5.5t30.5 15t26 23t19 29.5v110q-10 28 -29 48.5t-42 31.5t-48 11t-47 -11t-37.5 -31.5t-24 -45.5t-8.5 -52q0 -29 9.5 -53t26.5 -42.5t40 -28.5t49 -10zM151 622l110 108h115l109 -108l-82 -36l-85 63l-85 -63z
" />
    <glyph glyph-name="Gbreve" unicode="&#x11e;" horiz-adv-x="732" 
d="M369 -5q-70 0 -132 26.5t-109 75t-73.5 115t-26.5 148.5q0 74 27 138t75 113t112.5 76.5t139.5 27.5q98 0 173 -42t111 -113l-122 -92q-24 47 -69.5 74t-98.5 27q-40 0 -73.5 -16.5t-58 -46t-37.5 -68.5t-13 -84q0 -46 14 -85t39 -67.5t59.5 -44.5t76.5 -16
q51 0 97.5 25.5t85.5 75.5v-162q-85 -85 -197 -85zM556 252h-138v119h274v-371h-136v252zM381 838q23 0 40.5 22t20.5 55h83q0 -64 -40 -105.5t-104 -41.5q-63 0 -103.5 41.5t-40.5 105.5h85q0 -31 17.5 -54t41.5 -23z" />
    <glyph glyph-name="gbreve" unicode="&#x11f;" horiz-adv-x="640" 
d="M259 -2q-52 0 -95 20.5t-73.5 57t-47.5 84.5t-17 103q0 58 18 107t50.5 86.5t77 58t98.5 20.5q59 0 104 -25.5t72 -70.5v86h139v-489q0 -80 -38.5 -138t-107 -89.5t-158.5 -31.5q-84 0 -144.5 27.5t-105.5 77.5l86 87q29 -33 72 -52.5t92 -19.5q39 0 72 14t52.5 45
t19.5 80v51q-24 -43 -69.5 -66t-96.5 -23zM314 125q19 0 35.5 5.5t30.5 15t26 23t19 29.5v110q-10 28 -29 48.5t-42 31.5t-48 11t-47 -11t-37.5 -31.5t-24 -45.5t-8.5 -52q0 -29 9.5 -53t26.5 -42.5t40 -28.5t49 -10zM318 653q23 0 40.5 22t20.5 55h83q0 -64 -40 -105.5
t-104 -41.5q-63 0 -103.5 41.5t-40.5 105.5h85q0 -31 17.5 -54t41.5 -23z" />
    <glyph glyph-name="Gdotaccent" unicode="&#x120;" horiz-adv-x="732" 
d="M369 -5q-70 0 -132 26.5t-109 75t-73.5 115t-26.5 148.5q0 74 27 138t75 113t112.5 76.5t139.5 27.5q98 0 173 -42t111 -113l-122 -92q-24 47 -69.5 74t-98.5 27q-40 0 -73.5 -16.5t-58 -46t-37.5 -68.5t-13 -84q0 -46 14 -85t39 -67.5t59.5 -44.5t76.5 -16
q51 0 97.5 25.5t85.5 75.5v-162q-85 -85 -197 -85zM556 252h-138v119h274v-371h-136v252zM310 778v137h144v-137h-144z" />
    <glyph glyph-name="gdotaccent" unicode="&#x121;" horiz-adv-x="640" 
d="M259 -2q-52 0 -95 20.5t-73.5 57t-47.5 84.5t-17 103q0 58 18 107t50.5 86.5t77 58t98.5 20.5q59 0 104 -25.5t72 -70.5v86h139v-489q0 -80 -38.5 -138t-107 -89.5t-158.5 -31.5q-84 0 -144.5 27.5t-105.5 77.5l86 87q29 -33 72 -52.5t92 -19.5q39 0 72 14t52.5 45
t19.5 80v51q-24 -43 -69.5 -66t-96.5 -23zM314 125q19 0 35.5 5.5t30.5 15t26 23t19 29.5v110q-10 28 -29 48.5t-42 31.5t-48 11t-47 -11t-37.5 -31.5t-24 -45.5t-8.5 -52q0 -29 9.5 -53t26.5 -42.5t40 -28.5t49 -10zM247 593v137h144v-137h-144z" />
    <glyph glyph-name="uni0122" unicode="&#x122;" horiz-adv-x="732" 
d="M369 -5q-70 0 -132 26.5t-109 75t-73.5 115t-26.5 148.5q0 74 27 138t75 113t112.5 76.5t139.5 27.5q98 0 173 -42t111 -113l-122 -92q-24 47 -69.5 74t-98.5 27q-40 0 -73.5 -16.5t-58 -46t-37.5 -68.5t-13 -84q0 -46 14 -85t39 -67.5t59.5 -44.5t76.5 -16
q51 0 97.5 25.5t85.5 75.5v-162q-85 -85 -197 -85zM556 252h-138v119h274v-371h-136v252zM317 -213l31 67h-48v99h134v-99l-47 -67h-70z" />
    <glyph glyph-name="uni0123" unicode="&#x123;" horiz-adv-x="640" 
d="M259 -2q-52 0 -95 20.5t-73.5 57t-47.5 84.5t-17 103q0 58 18 107t50.5 86.5t77 58t98.5 20.5q59 0 104 -25.5t72 -70.5v86h139v-489q0 -80 -38.5 -138t-107 -89.5t-158.5 -31.5q-84 0 -144.5 27.5t-105.5 77.5l86 87q29 -33 72 -52.5t92 -19.5q39 0 72 14t52.5 45
t19.5 80v51q-24 -43 -69.5 -66t-96.5 -23zM314 125q19 0 35.5 5.5t30.5 15t26 23t19 29.5v110q-10 28 -29 48.5t-42 31.5t-48 11t-47 -11t-37.5 -31.5t-24 -45.5t-8.5 -52q0 -29 9.5 -53t26.5 -42.5t40 -28.5t49 -10zM369 730l-31 -61h47v-90h-133v90l46 61h71z" />
    <glyph glyph-name="Hcircumflex" unicode="&#x124;" horiz-adv-x="747" 
d="M679 710v-710h-164v291h-283v-291h-164v710h164v-275h283v275h164zM209 806l110 108h115l109 -108l-82 -36l-85 63l-85 -63z" />
    <glyph glyph-name="hcircumflex" unicode="&#x125;" horiz-adv-x="612" 
d="M561 0h-160v295q0 51 -20.5 75t-54.5 24q-18 0 -40.5 -11.5t-41.5 -32.5t-29 -49v-301h-160v730h160v-293q29 47 76.5 72.5t104.5 25.5q54 0 86.5 -18t49.5 -47.5t23 -64.5t6 -69v-336zM156 807l110 108h115l109 -108l-82 -36l-85 63l-85 -63z" />
    <glyph glyph-name="Hbar" unicode="&#x126;" horiz-adv-x="755" 
d="M22 535v82h711v-82h-711zM683 710v-710h-164v291h-283v-291h-164v710h164v-275h283v275h164z" />
    <glyph glyph-name="hbar" unicode="&#x127;" horiz-adv-x="612" 
d="M17 588v94h315v-94h-315zM561 0h-160v295q0 51 -20.5 75t-54.5 24q-18 0 -40.5 -11.5t-41.5 -32.5t-29 -49v-301h-160v730h160v-293q29 47 76.5 72.5t104.5 25.5q54 0 86.5 -18t49.5 -47.5t23 -64.5t6 -69v-336z" />
    <glyph glyph-name="Itilde" unicode="&#x128;" horiz-adv-x="300" 
d="M68 0v710h164v-710h-164zM217 773q-30 0 -52 11.5t-40 23t-41 11.5q-22 0 -32 -11t-12.5 -23t-2.5 -14h-86q0 11 6.5 34.5t22 48t39.5 42t59 17.5q32 0 52.5 -12t39 -24t41.5 -12q24 0 34.5 11.5t14 24.5t3.5 14h86q0 -8 -7 -30.5t-22.5 -48t-40.5 -44.5t-62 -19z" />
    <glyph glyph-name="itilde" unicode="&#x129;" horiz-adv-x="270" 
d="M55 0v525h160v-525h-160zM202 588q-30 0 -52 11.5t-40 23t-41 11.5q-22 0 -32 -11t-12.5 -23t-2.5 -14h-86q0 11 6.5 34.5t22 48t39.5 42t59 17.5q32 0 52.5 -12t39 -24t41.5 -12q24 0 34.5 11.5t14 24.5t3.5 14h86q0 -8 -7 -30.5t-22.5 -48t-40.5 -44.5t-62 -19z" />
    <glyph glyph-name="Imacron" unicode="&#x12a;" horiz-adv-x="300" 
d="M68 0v710h164v-710h-164zM-1 806v97h304v-97h-304z" />
    <glyph glyph-name="imacron" unicode="&#x12b;" horiz-adv-x="270" 
d="M55 0v525h160v-525h-160zM-16 621v97h304v-97h-304z" />
    <glyph glyph-name="Ibreve" unicode="&#x12c;" horiz-adv-x="300" 
d="M68 0v710h164v-710h-164zM149 838q23 0 40.5 22t20.5 55h83q0 -64 -40 -105.5t-104 -41.5q-63 0 -103.5 41.5t-40.5 105.5h85q0 -31 17.5 -54t41.5 -23z" />
    <glyph glyph-name="ibreve" unicode="&#x12d;" horiz-adv-x="270" 
d="M55 0v525h160v-525h-160zM134 653q23 0 40.5 22t20.5 55h83q0 -64 -40 -105.5t-104 -41.5q-63 0 -103.5 41.5t-40.5 105.5h85q0 -31 17.5 -54t41.5 -23z" />
    <glyph glyph-name="Iogonek" unicode="&#x12e;" horiz-adv-x="300" 
d="M68 0v710h164v-710h-164zM58 -113q0 35 27 70.5t80 64.5h52l15 -22q-36 -24 -55 -45t-19 -38t18 -27t54 -11l-30 -87q-51 6 -82.5 20t-45.5 34t-14 41z" />
    <glyph glyph-name="iogonek" unicode="&#x12f;" horiz-adv-x="270" 
d="M55 0v525h160v-525h-160zM55 585v145h160v-145h-160zM41 -113q0 35 27 70.5t80 64.5h52l15 -22q-36 -24 -55 -45t-19 -38t18 -27t54 -11l-30 -87q-51 6 -82.5 20t-45.5 34t-14 41z" />
    <glyph glyph-name="Idotaccent" unicode="&#x130;" horiz-adv-x="300" 
d="M68 0v710h164v-710h-164zM78 778v137h144v-137h-144z" />
    <glyph glyph-name="dotlessi" unicode="&#x131;" horiz-adv-x="270" 
d="M55 0v525h160v-525h-160z" />
    <glyph glyph-name="IJ" unicode="&#x132;" horiz-adv-x="794" 
d="M68 0v710h164v-710h-164zM340 167q10 -7 42.5 -19.5t76.5 -12.5q35 0 57.5 12t34 36.5t15.5 64t4 95.5v367h164v-361q0 -80 -9 -146t-36.5 -114.5t-82.5 -74t-147 -25.5q-47 0 -85 11t-70 33z" />
    <glyph glyph-name="ij" unicode="&#x133;" horiz-adv-x="544" 
d="M55 0v525h160v-525h-160zM55 585v145h160v-145h-160zM297 -202q-39 0 -75.5 12.5t-65.5 37.5l67 109q10 -11 24.5 -16t29.5 -5t27 6.5t19 19.5t7 29v534h160v-522q0 -60 -25.5 -106.5t-69 -72.5t-98.5 -26zM330 585v145h160v-145h-160z" />
    <glyph glyph-name="Jcircumflex" unicode="&#x134;" horiz-adv-x="494" 
d="M40 167q10 -7 42.5 -19.5t76.5 -12.5q35 0 57.5 12t34 36.5t15.5 64t4 95.5v367h164v-361q0 -80 -9 -146t-36.5 -114.5t-82.5 -74t-147 -25.5q-47 0 -85 11t-70 33zM187 807l110 108h115l109 -108l-82 -36l-85 63l-85 -63z" />
    <glyph glyph-name="jcircumflex" unicode="&#x135;" horiz-adv-x="270" 
d="M22 -202q-39 0 -75.5 12.5t-65.5 37.5l67 109q10 -11 24.5 -16t29.5 -5t27 6.5t19 19.5t7 29v534h160v-522q0 -60 -25.5 -106.5t-69 -72.5t-98.5 -26zM-32 622l110 108h115l109 -108l-82 -36l-85 63l-85 -63z" />
    <glyph glyph-name="uni0136" unicode="&#x136;" horiz-adv-x="679" 
d="M68 0v710h164v-306l260 306h184l-266 -317l284 -393h-188l-200 285l-74 -76v-209h-164zM307 -213l31 67h-48v99h134v-99l-47 -67h-70z" />
    <glyph glyph-name="uni0137" unicode="&#x137;" horiz-adv-x="569" 
d="M408 0l-137 210l-56 -57v-153h-160v730h160v-422l178 217h169l-189 -226l205 -299h-170zM241 -213l31 67h-48v99h134v-99l-47 -67h-70z" />
    <glyph glyph-name="kgreenlandic" unicode="&#x138;" horiz-adv-x="569" 
d="M408 0l-137 211l-56 -58v-153h-160v525h160v-218l177 218h170l-189 -226l205 -299h-170z" />
    <glyph glyph-name="Lacute" unicode="&#x139;" horiz-adv-x="585" 
d="M68 0v710h164v-566h344v-144h-508zM203 757l-102 28l52 130h145z" />
    <glyph glyph-name="lacute" unicode="&#x13a;" horiz-adv-x="335" 
d="M53 730h160v-543q0 -33 12 -47t34 -14q15 0 30.5 4.5t27.5 10.5l21 -120q-30 -14 -69 -22t-73 -8q-68 0 -105.5 36.5t-37.5 103.5v599zM184 757l-102 28l52 130h145z" />
    <glyph glyph-name="uni013B" unicode="&#x13b;" horiz-adv-x="585" 
d="M68 0v710h164v-566h344v-144h-508zM283 -213l31 67h-48v99h134v-99l-47 -67h-70z" />
    <glyph glyph-name="uni013C" unicode="&#x13c;" horiz-adv-x="335" 
d="M53 730h160v-543q0 -33 12 -47t34 -14q15 0 30.5 4.5t27.5 10.5l21 -120q-30 -14 -69 -22t-73 -8q-68 0 -105.5 36.5t-37.5 103.5v599zM142 -213l31 67h-48v99h134v-99l-47 -67h-70z" />
    <glyph glyph-name="Lcaron" unicode="&#x13d;" horiz-adv-x="585" 
d="M68 0v710h164v-566h344v-144h-508zM455 573l-102 28l52 130h145z" />
    <glyph glyph-name="lcaron" unicode="&#x13e;" horiz-adv-x="335" 
d="M53 730h160v-543q0 -33 12 -47t34 -14q15 0 30.5 4.5t27.5 10.5l21 -120q-30 -14 -69 -22t-73 -8q-68 0 -105.5 36.5t-37.5 103.5v599zM352 572l-102 28l52 130h145z" />
    <glyph glyph-name="Ldot" unicode="&#x13f;" horiz-adv-x="585" 
d="M68 0v710h164v-566h344v-144h-508zM364 325v166h131v-166h-131z" />
    <glyph glyph-name="ldot" unicode="&#x140;" horiz-adv-x="429" 
d="M53 730h160v-543q0 -33 12 -47t34 -14q15 0 30.5 4.5t27.5 10.5l21 -120q-30 -14 -69 -22t-73 -8q-68 0 -105.5 36.5t-37.5 103.5v599zM281 241v166h131v-166h-131z" />
    <glyph glyph-name="Lslash" unicode="&#x141;" horiz-adv-x="595" 
d="M29 246l-38 86l344 194l37 -86zM79 0v710h164v-566h343v-144h-507z" />
    <glyph glyph-name="lslash" unicode="&#x142;" horiz-adv-x="364" 
d="M33 261l-38 86l328 179l38 -86zM78 730h160v-543q0 -33 12.5 -47t34.5 -14q15 0 30.5 4.5t27.5 10.5l21 -120q-30 -14 -69 -22t-73 -8q-68 0 -106 36.5t-38 103.5v599z" />
    <glyph glyph-name="Nacute" unicode="&#x143;" horiz-adv-x="759" 
d="M232 406v-406h-164v710h130l329 -418v418h164v-710h-134zM430 756l-102 28l52 130h145z" />
    <glyph glyph-name="nacute" unicode="&#x144;" horiz-adv-x="612" 
d="M561 0h-160v295q0 52 -19.5 75.5t-51.5 23.5q-22 0 -45 -12t-41.5 -33t-28.5 -48v-301h-160v525h144v-88q20 31 50 53t69 33.5t85 11.5q51 0 82.5 -18.5t48 -48.5t22 -64.5t5.5 -67.5v-336zM376 572l-102 28l52 130h145z" />
    <glyph glyph-name="uni0145" unicode="&#x145;" horiz-adv-x="759" 
d="M232 406v-406h-164v710h130l329 -418v418h164v-710h-134zM324 -213l31 67h-48v99h134v-99l-47 -67h-70z" />
    <glyph glyph-name="uni0146" unicode="&#x146;" horiz-adv-x="612" 
d="M561 0h-160v295q0 52 -19.5 75.5t-51.5 23.5q-22 0 -45 -12t-41.5 -33t-28.5 -48v-301h-160v525h144v-88q20 31 50 53t69 33.5t85 11.5q51 0 82.5 -18.5t48 -48.5t22 -64.5t5.5 -67.5v-336zM253 -213l31 67h-48v99h134v-99l-47 -67h-70z" />
    <glyph glyph-name="Ncaron" unicode="&#x147;" horiz-adv-x="759" 
d="M232 406v-406h-164v710h130l329 -418v418h164v-710h-134zM293 914l85 -63l85 63l82 -37l-109 -107h-115l-110 107z" />
    <glyph glyph-name="ncaron" unicode="&#x148;" horiz-adv-x="612" 
d="M561 0h-160v295q0 52 -19.5 75.5t-51.5 23.5q-22 0 -45 -12t-41.5 -33t-28.5 -48v-301h-160v525h144v-88q20 31 50 53t69 33.5t85 11.5q51 0 82.5 -18.5t48 -48.5t22 -64.5t5.5 -67.5v-336zM239 730l85 -63l85 63l82 -37l-109 -107h-115l-110 107z" />
    <glyph glyph-name="napostrophe" unicode="&#x149;" horiz-adv-x="612" 
d="M561 0h-160v295q0 52 -19.5 75.5t-51.5 23.5q-22 0 -45 -12t-41.5 -33t-28.5 -48v-301h-160v525h144v-88q20 31 50 53t69 33.5t85 11.5q51 0 82.5 -18.5t48 -48.5t22 -64.5t5.5 -67.5v-336zM166 730l-96 -158l-102 28l33 80l-9 50h174z" />
    <glyph glyph-name="Eng" unicode="&#x14a;" horiz-adv-x="743" 
d="M232 401v-401h-164v710h126l316 -409v408h164v-711q0 -61 -25.5 -105.5t-69.5 -69.5t-98 -25q-39 0 -75 12.5t-65 37.5l67 109q10 -11 24 -16t29 -5q16 0 27.5 6.5t18.5 19.5t7 29v44z" />
    <glyph glyph-name="eng" unicode="&#x14b;" horiz-adv-x="611" 
d="M368 -202q-39 0 -75.5 12.5t-65.5 37.5l67 109q10 -11 24.5 -16t29.5 -5t27 6.5t19 19.5t7 29v304q0 52 -19.5 75.5t-51.5 23.5q-22 0 -45 -12t-41.5 -33t-28.5 -48v-301h-160v525h144v-88q20 31 50 53t69 33.5t85 11.5q51 0 82.5 -18.5t47.5 -48.5t22 -64.5t6 -67.5
v-333q0 -60 -25.5 -106.5t-69 -72.5t-98.5 -26z" />
    <glyph glyph-name="Omacron" unicode="&#x14c;" horiz-adv-x="760" 
d="M379 -6q-80 0 -144.5 30.5t-111 82t-71.5 116t-25 133.5q0 71 26.5 135t74 114.5t112.5 79.5t142 29q79 0 143.5 -30.5t111 -82.5t71.5 -116.5t25 -131.5q0 -71 -26 -135t-74 -114.5t-112.5 -80t-141.5 -29.5zM194 354q0 -41 12 -79.5t35.5 -68.5t58.5 -48t80 -18
q47 0 82 18.5t58 49.5t34.5 69.5t11.5 78.5q0 41 -12 79t-36 68.5t-59 47.5t-79 17q-47 0 -81.5 -18t-58 -48.5t-35 -69t-11.5 -78.5zM231 806v97h304v-97h-304z" />
    <glyph glyph-name="omacron" unicode="&#x14d;" horiz-adv-x="610" 
d="M305 -10q-67 0 -119.5 22t-88.5 60t-54.5 87t-18.5 103q0 55 18.5 104t54.5 87t88.5 60t119.5 22t119 -22t88 -60t55 -87t19 -104q0 -54 -19 -103t-55 -87t-88 -60t-119 -22zM188 262q0 -41 15.5 -72t41.5 -48t60 -17q33 0 59.5 17.5t41.5 48.5t15 71q0 41 -15 72
t-41.5 48t-59.5 17q-34 0 -60 -17t-41.5 -48t-15.5 -72zM154 621v97h304v-97h-304z" />
    <glyph glyph-name="Obreve" unicode="&#x14e;" horiz-adv-x="760" 
d="M379 -6q-80 0 -144.5 30.5t-111 82t-71.5 116t-25 133.5q0 71 26.5 135t74 114.5t112.5 79.5t142 29q79 0 143.5 -30.5t111 -82.5t71.5 -116.5t25 -131.5q0 -71 -26 -135t-74 -114.5t-112.5 -80t-141.5 -29.5zM194 354q0 -41 12 -79.5t35.5 -68.5t58.5 -48t80 -18
q47 0 82 18.5t58 49.5t34.5 69.5t11.5 78.5q0 41 -12 79t-36 68.5t-59 47.5t-79 17q-47 0 -81.5 -18t-58 -48.5t-35 -69t-11.5 -78.5zM382 838q23 0 40.5 22t20.5 55h83q0 -64 -40 -105.5t-104 -41.5q-63 0 -103.5 41.5t-40.5 105.5h85q0 -31 17.5 -54t41.5 -23z" />
    <glyph glyph-name="obreve" unicode="&#x14f;" horiz-adv-x="610" 
d="M305 -10q-67 0 -119.5 22t-88.5 60t-54.5 87t-18.5 103q0 55 18.5 104t54.5 87t88.5 60t119.5 22t119 -22t88 -60t55 -87t19 -104q0 -54 -19 -103t-55 -87t-88 -60t-119 -22zM188 262q0 -41 15.5 -72t41.5 -48t60 -17q33 0 59.5 17.5t41.5 48.5t15 71q0 41 -15 72
t-41.5 48t-59.5 17q-34 0 -60 -17t-41.5 -48t-15.5 -72zM304 653q23 0 40.5 22t20.5 55h83q0 -64 -40 -105.5t-104 -41.5q-63 0 -103.5 41.5t-40.5 105.5h85q0 -31 17.5 -54t41.5 -23z" />
    <glyph glyph-name="Ohungarumlaut" unicode="&#x150;" horiz-adv-x="760" 
d="M379 -6q-80 0 -144.5 30.5t-111 82t-71.5 116t-25 133.5q0 71 26.5 135t74 114.5t112.5 79.5t142 29q79 0 143.5 -30.5t111 -82.5t71.5 -116.5t25 -131.5q0 -71 -26 -135t-74 -114.5t-112.5 -80t-141.5 -29.5zM194 354q0 -41 12 -79.5t35.5 -68.5t58.5 -48t80 -18
q47 0 82 18.5t58 49.5t34.5 69.5t11.5 78.5q0 41 -12 79t-36 68.5t-59 47.5t-79 17q-47 0 -81.5 -18t-58 -48.5t-35 -69t-11.5 -78.5zM319 758l-77 28l45 130h120zM494 758l-77 28l44 130h120z" />
    <glyph glyph-name="ohungarumlaut" unicode="&#x151;" horiz-adv-x="610" 
d="M305 -10q-67 0 -119.5 22t-88.5 60t-54.5 87t-18.5 103q0 55 18.5 104t54.5 87t88.5 60t119.5 22t119 -22t88 -60t55 -87t19 -104q0 -54 -19 -103t-55 -87t-88 -60t-119 -22zM188 262q0 -41 15.5 -72t41.5 -48t60 -17q33 0 59.5 17.5t41.5 48.5t15 71q0 41 -15 72
t-41.5 48t-59.5 17q-34 0 -60 -17t-41.5 -48t-15.5 -72zM241 573l-77 28l45 130h120zM416 573l-77 28l44 130h120z" />
    <glyph glyph-name="OE" unicode="&#x152;" horiz-adv-x="1060" 
d="M1028 144v-144h-483v75q-22 -23 -50.5 -41.5t-61 -28.5t-68.5 -10q-76 0 -138 30t-107 81.5t-69 116t-24 133.5q0 71 25.5 135.5t71.5 114.5t108 79.5t136 29.5q36 0 68 -10t59.5 -28t49.5 -41v74h474v-144h-310v-133h256v-143h-256v-146h319zM366 141q43 0 75.5 18.5
t53.5 49t32 69t11 78.5q0 41 -11.5 79.5t-33.5 68.5t-54 47.5t-74 17.5t-74 -18.5t-53.5 -49t-32.5 -69t-11 -78.5q0 -41 11 -79t33 -68.5t54.5 -48t73.5 -17.5z" />
    <glyph glyph-name="oe" unicode="&#x153;" horiz-adv-x="1002" 
d="M303 -10q-81 0 -144 35t-99 96.5t-36 140.5t36 140.5t98.5 97t143.5 35.5q42 0 78.5 -12t67 -35.5t55.5 -58.5q42 54 91 80t112 26q81 0 143 -35t98 -96t37 -142q0 -12 -1 -25.5t-3 -23.5h-388q3 -32 19 -56.5t43 -39.5t59 -15q37 0 69 18.5t44 47.5l131 -38
q-21 -43 -58.5 -74.5t-86.5 -48.5t-104 -17q-39 0 -73 10.5t-66 33.5t-66 56q-33 -35 -64.5 -57t-64.5 -32.5t-71 -10.5zM305 125q34 0 60.5 17.5t41 48.5t14.5 71t-14.5 71t-41 48.5t-60.5 17.5t-60.5 -17.5t-41.5 -48.5t-15 -71t15 -71t41.5 -48.5t60.5 -17.5zM818 310
q-3 33 -19 57.5t-41 38.5t-57 14q-31 0 -56 -14t-40 -38.5t-18 -57.5h231z" />
    <glyph glyph-name="Racute" unicode="&#x154;" horiz-adv-x="670" 
d="M68 0v710h320q50 0 92.5 -20.5t73.5 -55t48.5 -77.5t17.5 -87t-14 -83.5t-40 -71t-62 -51.5l156 -264h-181l-136 229h-111v-229h-164zM232 372h150q20 0 35.5 12.5t25.5 34.5t10 51t-11.5 50.5t-28.5 33.5t-36 12h-145v-194zM368 756l-102 28l52 130h145z" />
    <glyph glyph-name="racute" unicode="&#x155;" horiz-adv-x="400" 
d="M388 388q-58 0 -105 -18.5t-68 -54.5v-315h-160v525h147v-106q27 53 70 83t90 31h16.5t9.5 -1v-144zM270 572l-102 28l52 130h145z" />
    <glyph glyph-name="uni0156" unicode="&#x156;" horiz-adv-x="670" 
d="M68 0v710h320q50 0 92.5 -20.5t73.5 -55t48.5 -77.5t17.5 -87t-14 -83.5t-40 -71t-62 -51.5l156 -264h-181l-136 229h-111v-229h-164zM232 372h150q20 0 35.5 12.5t25.5 34.5t10 51t-11.5 50.5t-28.5 33.5t-36 12h-145v-194zM294 -213l31 67h-48v99h134v-99l-47 -67h-70z
" />
    <glyph glyph-name="uni0157" unicode="&#x157;" horiz-adv-x="400" 
d="M388 388q-58 0 -105 -18.5t-68 -54.5v-315h-160v525h147v-106q27 53 70 83t90 31h16.5t9.5 -1v-144zM75 -213l31 67h-48v99h134v-99l-47 -67h-70z" />
    <glyph glyph-name="Rcaron" unicode="&#x158;" horiz-adv-x="670" 
d="M68 0v710h320q50 0 92.5 -20.5t73.5 -55t48.5 -77.5t17.5 -87t-14 -83.5t-40 -71t-62 -51.5l156 -264h-181l-136 229h-111v-229h-164zM232 372h150q20 0 35.5 12.5t25.5 34.5t10 51t-11.5 50.5t-28.5 33.5t-36 12h-145v-194zM231 914l85 -63l85 63l82 -37l-109 -107h-115
l-110 107z" />
    <glyph glyph-name="rcaron" unicode="&#x159;" horiz-adv-x="400" 
d="M388 388q-58 0 -105 -18.5t-68 -54.5v-315h-160v525h147v-106q27 53 70 83t90 31h16.5t9.5 -1v-144zM133 730l85 -63l85 63l82 -37l-109 -107h-115l-110 107z" />
    <glyph glyph-name="Sacute" unicode="&#x15a;" horiz-adv-x="615" 
d="M494 502q-3 5 -21 15.5t-45 22.5t-59 21t-64 9q-42 0 -65 -14.5t-23 -44.5q0 -24 17.5 -38t50.5 -24.5t81 -24.5q68 -18 118 -43.5t76.5 -65.5t26.5 -106q0 -60 -22 -101.5t-59.5 -67t-85.5 -37t-99 -11.5q-52 0 -106.5 10.5t-104.5 30t-92 47.5l72 143q4 -5 26 -18.5
t54.5 -28t72.5 -25.5t81 -11q44 0 65.5 14t21.5 39q0 27 -22.5 42t-61 27t-88.5 27q-65 20 -107.5 45t-63 61t-20.5 90q0 75 35.5 126.5t95.5 78t131 26.5q50 0 96.5 -12t87 -30t72.5 -36zM366 760l-102 28l52 130h145z" />
    <glyph glyph-name="sacute" unicode="&#x15b;" horiz-adv-x="497" 
d="M256 -10q-67 0 -131 22t-108 65l55 101q48 -35 93.5 -53t85.5 -18q31 0 48 10t17 31q0 15 -10 23.5t-30.5 15.5t-50.5 15q-60 20 -100 39t-60 46.5t-20 71.5q0 53 26.5 92.5t75.5 61.5t117 22q54 0 105.5 -17t96.5 -57l-62 -100q-45 31 -80 45t-68 14q-17 0 -31 -4
t-22.5 -13.5t-8.5 -24.5t8.5 -24t27 -15.5t46.5 -15.5q65 -19 108 -38.5t64.5 -48t21.5 -75.5q0 -80 -57.5 -125.5t-156.5 -45.5zM308 572l-102 28l52 130h145z" />
    <glyph glyph-name="Scircumflex" unicode="&#x15c;" horiz-adv-x="615" 
d="M494 502q-3 5 -21 15.5t-45 22.5t-59 21t-64 9q-42 0 -65 -14.5t-23 -44.5q0 -24 17.5 -38t50.5 -24.5t81 -24.5q68 -18 118 -43.5t76.5 -65.5t26.5 -106q0 -60 -22 -101.5t-59.5 -67t-85.5 -37t-99 -11.5q-52 0 -106.5 10.5t-104.5 30t-92 47.5l72 143q4 -5 26 -18.5
t54.5 -28t72.5 -25.5t81 -11q44 0 65.5 14t21.5 39q0 27 -22.5 42t-61 27t-88.5 27q-65 20 -107.5 45t-63 61t-20.5 90q0 75 35.5 126.5t95.5 78t131 26.5q50 0 96.5 -12t87 -30t72.5 -36zM147 810l110 108h115l109 -108l-82 -36l-85 63l-85 -63z" />
    <glyph glyph-name="scircumflex" unicode="&#x15d;" horiz-adv-x="497" 
d="M256 -10q-67 0 -131 22t-108 65l55 101q48 -35 93.5 -53t85.5 -18q31 0 48 10t17 31q0 15 -10 23.5t-30.5 15.5t-50.5 15q-60 20 -100 39t-60 46.5t-20 71.5q0 53 26.5 92.5t75.5 61.5t117 22q54 0 105.5 -17t96.5 -57l-62 -100q-45 31 -80 45t-68 14q-17 0 -31 -4
t-22.5 -13.5t-8.5 -24.5t8.5 -24t27 -15.5t46.5 -15.5q65 -19 108 -38.5t64.5 -48t21.5 -75.5q0 -80 -57.5 -125.5t-156.5 -45.5zM89 622l110 108h115l109 -108l-82 -36l-85 63l-85 -63z" />
    <glyph glyph-name="Scedilla" unicode="&#x15e;" horiz-adv-x="615" 
d="M494 502q-3 5 -21 15.5t-45 22.5t-59 21t-64 9q-42 0 -65 -14.5t-23 -44.5q0 -24 17.5 -38t50.5 -24.5t81 -24.5q68 -18 118 -43.5t76.5 -65.5t26.5 -106q0 -60 -22 -101.5t-59.5 -67t-85.5 -37t-99 -11.5q-52 0 -106.5 10.5t-104.5 30t-92 47.5l72 143q4 -5 26 -18.5
t54.5 -28t72.5 -25.5t81 -11q44 0 65.5 14t21.5 39q0 27 -22.5 42t-61 27t-88.5 27q-65 20 -107.5 45t-63 61t-20.5 90q0 75 35.5 126.5t95.5 78t131 26.5q50 0 96.5 -12t87 -30t72.5 -36zM308 -210q-28 0 -59.5 8t-62.5 24l38 83q14 -10 28 -15t29 -5q21 0 34.5 11t13.5 31
t-12.5 37.5t-36.5 35.5l52 32q39 -27 65.5 -59t26.5 -77q0 -43 -29 -74.5t-87 -31.5z" />
    <glyph glyph-name="scedilla" unicode="&#x15f;" horiz-adv-x="497" 
d="M256 -10q-67 0 -131 22t-108 65l55 101q48 -35 93.5 -53t85.5 -18q31 0 48 10t17 31q0 15 -10 23.5t-30.5 15.5t-50.5 15q-60 20 -100 39t-60 46.5t-20 71.5q0 53 26.5 92.5t75.5 61.5t117 22q54 0 105.5 -17t96.5 -57l-62 -100q-45 31 -80 45t-68 14q-17 0 -31 -4
t-22.5 -13.5t-8.5 -24.5t8.5 -24t27 -15.5t46.5 -15.5q65 -19 108 -38.5t64.5 -48t21.5 -75.5q0 -80 -57.5 -125.5t-156.5 -45.5zM244 -210q-28 0 -59.5 8t-62.5 24l38 83q14 -10 28 -15t29 -5q21 0 34.5 11t13.5 31t-12.5 37.5t-36.5 35.5l52 32q39 -27 65.5 -59t26.5 -77
q0 -43 -29 -74.5t-87 -31.5z" />
    <glyph glyph-name="Scaron" unicode="&#x160;" horiz-adv-x="615" 
d="M494 502q-3 5 -21 15.5t-45 22.5t-59 21t-64 9q-42 0 -65 -14.5t-23 -44.5q0 -24 17.5 -38t50.5 -24.5t81 -24.5q68 -18 118 -43.5t76.5 -65.5t26.5 -106q0 -60 -22 -101.5t-59.5 -67t-85.5 -37t-99 -11.5q-52 0 -106.5 10.5t-104.5 30t-92 47.5l72 143q4 -5 26 -18.5
t54.5 -28t72.5 -25.5t81 -11q44 0 65.5 14t21.5 39q0 27 -22.5 42t-61 27t-88.5 27q-65 20 -107.5 45t-63 61t-20.5 90q0 75 35.5 126.5t95.5 78t131 26.5q50 0 96.5 -12t87 -30t72.5 -36zM229 918l85 -63l85 63l82 -37l-109 -107h-115l-110 107z" />
    <glyph glyph-name="scaron" unicode="&#x161;" horiz-adv-x="497" 
d="M256 -10q-67 0 -131 22t-108 65l55 101q48 -35 93.5 -53t85.5 -18q31 0 48 10t17 31q0 15 -10 23.5t-30.5 15.5t-50.5 15q-60 20 -100 39t-60 46.5t-20 71.5q0 53 26.5 92.5t75.5 61.5t117 22q54 0 105.5 -17t96.5 -57l-62 -100q-45 31 -80 45t-68 14q-17 0 -31 -4
t-22.5 -13.5t-8.5 -24.5t8.5 -24t27 -15.5t46.5 -15.5q65 -19 108 -38.5t64.5 -48t21.5 -75.5q0 -80 -57.5 -125.5t-156.5 -45.5zM171 730l85 -63l85 63l82 -37l-109 -107h-115l-110 107z" />
    <glyph glyph-name="uni0162" unicode="&#x162;" horiz-adv-x="621" 
d="M609 566h-216v-566h-164v566h-217v144h597v-144zM297 -210q-28 0 -59.5 8t-62.5 24l38 83q14 -10 28 -15t29 -5q21 0 34.5 11t13.5 31t-12.5 37.5t-36.5 35.5l52 32q39 -27 65.5 -59t26.5 -77q0 -43 -29 -74.5t-87 -31.5z" />
    <glyph glyph-name="uni0163" unicode="&#x163;" horiz-adv-x="402" 
d="M395 28q-22 -9 -48.5 -18t-55.5 -14.5t-57 -5.5q-40 0 -73.5 13.5t-53 44.5t-19.5 82v274h-67v121h67v167h160v-167h107v-121h-107v-219q0 -26 13 -37.5t33 -11.5q17 0 36.5 6t33.5 13zM219 -210q-28 0 -59.5 8t-62.5 24l38 83q14 -10 28 -15t29 -5q21 0 34.5 11t13.5 31
t-12.5 37.5t-36.5 35.5l52 32q39 -27 65.5 -59t26.5 -77q0 -43 -29 -74.5t-87 -31.5z" />
    <glyph glyph-name="Tcaron" unicode="&#x164;" horiz-adv-x="621" 
d="M609 566h-216v-566h-164v566h-217v144h597v-144zM232 915l85 -63l85 63l82 -37l-109 -107h-115l-110 107z" />
    <glyph glyph-name="tcaron" unicode="&#x165;" horiz-adv-x="402" 
d="M395 28q-22 -9 -48.5 -18t-55.5 -14.5t-57 -5.5q-40 0 -73.5 13.5t-53 44.5t-19.5 82v274h-67v121h67v167h160v-167h107v-121h-107v-219q0 -26 13 -37.5t33 -11.5q17 0 36.5 6t33.5 13zM388 572l-102 28l52 130h145z" />
    <glyph glyph-name="Tbar" unicode="&#x166;" horiz-adv-x="645" 
d="M72 280v82h501v-82h-501zM621 566h-216v-566h-164v566h-217v144h597v-144z" />
    <glyph glyph-name="tbar" unicode="&#x167;" horiz-adv-x="403" 
d="M30 240v94h315v-94h-315zM396 28q-22 -9 -48.5 -18t-55.5 -14.5t-57 -5.5q-40 0 -73.5 13.5t-53 44.5t-19.5 82v274h-67v121h67v167h160v-167h107v-121h-107v-219q0 -26 13 -37.5t33 -11.5q17 0 36.5 6t33.5 13z" />
    <glyph glyph-name="Utilde" unicode="&#x168;" horiz-adv-x="747" 
d="M373 -6q-85 0 -145 28.5t-97.5 78t-55 113t-17.5 133.5v363h164v-363q0 -40 8 -77.5t26 -66.5t46.5 -46t70.5 -17q43 0 72 17.5t46 47t25 66.5t8 76v363h164v-363q0 -74 -18.5 -138t-56.5 -112.5t-97.5 -75.5t-142.5 -27zM440 773q-30 0 -52 11.5t-40 23t-41 11.5
q-22 0 -32 -11t-12.5 -23t-2.5 -14h-86q0 11 6.5 34.5t22 48t39.5 42t59 17.5q32 0 52.5 -12t39 -24t41.5 -12q24 0 34.5 11.5t14 24.5t3.5 14h86q0 -8 -7 -30.5t-22.5 -48t-40.5 -44.5t-62 -19z" />
    <glyph glyph-name="utilde" unicode="&#x169;" horiz-adv-x="627" 
d="M50 189v336h160v-301q0 -48 19 -73.5t54 -25.5q22 0 42 7.5t39 24.5t34 44v324h160v-347q0 -24 7.5 -33.5t26.5 -11.5v-133q-22 -4 -38.5 -6t-29.5 -2q-42 0 -67 17.5t-31 49.5l-3 32q-36 -52 -89.5 -76.5t-119.5 -24.5q-80 0 -122 51t-42 148zM371 588q-30 0 -52 11.5
t-40 23t-41 11.5q-22 0 -32 -11t-12.5 -23t-2.5 -14h-86q0 11 6.5 34.5t22 48t39.5 42t59 17.5q32 0 52.5 -12t39 -24t41.5 -12q24 0 34.5 11.5t14 24.5t3.5 14h86q0 -8 -7 -30.5t-22.5 -48t-40.5 -44.5t-62 -19z" />
    <glyph glyph-name="Umacron" unicode="&#x16a;" horiz-adv-x="747" 
d="M373 -6q-85 0 -145 28.5t-97.5 78t-55 113t-17.5 133.5v363h164v-363q0 -40 8 -77.5t26 -66.5t46.5 -46t70.5 -17q43 0 72 17.5t46 47t25 66.5t8 76v363h164v-363q0 -74 -18.5 -138t-56.5 -112.5t-97.5 -75.5t-142.5 -27zM222 806v97h304v-97h-304z" />
    <glyph glyph-name="umacron" unicode="&#x16b;" horiz-adv-x="627" 
d="M50 189v336h160v-301q0 -48 19 -73.5t54 -25.5q22 0 42 7.5t39 24.5t34 44v324h160v-347q0 -24 7.5 -33.5t26.5 -11.5v-133q-22 -4 -38.5 -6t-29.5 -2q-42 0 -67 17.5t-31 49.5l-3 32q-36 -52 -89.5 -76.5t-119.5 -24.5q-80 0 -122 51t-42 148zM153 621v97h304v-97h-304z
" />
    <glyph glyph-name="Ubreve" unicode="&#x16c;" horiz-adv-x="747" 
d="M373 -6q-85 0 -145 28.5t-97.5 78t-55 113t-17.5 133.5v363h164v-363q0 -40 8 -77.5t26 -66.5t46.5 -46t70.5 -17q43 0 72 17.5t46 47t25 66.5t8 76v363h164v-363q0 -74 -18.5 -138t-56.5 -112.5t-97.5 -75.5t-142.5 -27zM373 838q23 0 40.5 22t20.5 55h83
q0 -64 -40 -105.5t-104 -41.5q-63 0 -103.5 41.5t-40.5 105.5h85q0 -31 17.5 -54t41.5 -23z" />
    <glyph glyph-name="ubreve" unicode="&#x16d;" horiz-adv-x="627" 
d="M50 189v336h160v-301q0 -48 19 -73.5t54 -25.5q22 0 42 7.5t39 24.5t34 44v324h160v-347q0 -24 7.5 -33.5t26.5 -11.5v-133q-22 -4 -38.5 -6t-29.5 -2q-42 0 -67 17.5t-31 49.5l-3 32q-36 -52 -89.5 -76.5t-119.5 -24.5q-80 0 -122 51t-42 148zM303 653q23 0 40.5 22
t20.5 55h83q0 -64 -40 -105.5t-104 -41.5q-63 0 -103.5 41.5t-40.5 105.5h85q0 -31 17.5 -54t41.5 -23z" />
    <glyph glyph-name="Uring" unicode="&#x16e;" horiz-adv-x="747" 
d="M373 -6q-85 0 -145 28.5t-97.5 78t-55 113t-17.5 133.5v363h164v-363q0 -40 8 -77.5t26 -66.5t46.5 -46t70.5 -17q43 0 72 17.5t46 47t25 66.5t8 76v363h164v-363q0 -74 -18.5 -138t-56.5 -112.5t-97.5 -75.5t-142.5 -27zM262 834q0 43 30.5 68t80.5 25t80 -25t30 -68
q0 -41 -30 -66t-80 -25t-80.5 25t-30.5 66zM373 875q-18 0 -30 -11.5t-12 -28.5q0 -16 12 -28.5t30 -12.5q17 0 29.5 12t12.5 29t-12 28.5t-30 11.5z" />
    <glyph glyph-name="uring" unicode="&#x16f;" horiz-adv-x="627" 
d="M50 189v336h160v-301q0 -48 19 -73.5t54 -25.5q22 0 42 7.5t39 24.5t34 44v324h160v-347q0 -24 7.5 -33.5t26.5 -11.5v-133q-22 -4 -38.5 -6t-29.5 -2q-42 0 -67 17.5t-31 49.5l-3 32q-36 -52 -89.5 -76.5t-119.5 -24.5q-80 0 -122 51t-42 148zM193 649q0 43 30.5 68
t80.5 25t80 -25t30 -68q0 -41 -30 -66t-80 -25t-80.5 25t-30.5 66zM304 690q-18 0 -30 -11.5t-12 -28.5q0 -16 12 -28.5t30 -12.5q17 0 29.5 12t12.5 29t-12 28.5t-30 11.5z" />
    <glyph glyph-name="Uhungarumlaut" unicode="&#x170;" horiz-adv-x="747" 
d="M373 -6q-85 0 -145 28.5t-97.5 78t-55 113t-17.5 133.5v363h164v-363q0 -40 8 -77.5t26 -66.5t46.5 -46t70.5 -17q43 0 72 17.5t46 47t25 66.5t8 76v363h164v-363q0 -74 -18.5 -138t-56.5 -112.5t-97.5 -75.5t-142.5 -27zM310 758l-77 28l45 130h120zM485 758l-77 28
l44 130h120z" />
    <glyph glyph-name="uhungarumlaut" unicode="&#x171;" horiz-adv-x="627" 
d="M50 189v336h160v-301q0 -48 19 -73.5t54 -25.5q22 0 42 7.5t39 24.5t34 44v324h160v-347q0 -24 7.5 -33.5t26.5 -11.5v-133q-22 -4 -38.5 -6t-29.5 -2q-42 0 -67 17.5t-31 49.5l-3 32q-36 -52 -89.5 -76.5t-119.5 -24.5q-80 0 -122 51t-42 148zM240 573l-77 28l45 130
h120zM415 573l-77 28l44 130h120z" />
    <glyph glyph-name="Uogonek" unicode="&#x172;" horiz-adv-x="747" 
d="M373 -6q-85 0 -145 28.5t-97.5 78t-55 113t-17.5 133.5v363h164v-363q0 -40 8 -77.5t26 -66.5t46.5 -46t70.5 -17q43 0 72 17.5t46 47t25 66.5t8 76v363h164v-363q0 -74 -18.5 -138t-56.5 -112.5t-97.5 -75.5t-142.5 -27zM285 -108q0 35 27 70.5t80 64.5h52l15 -22
q-36 -24 -55 -45t-19 -38t18 -27t54 -11l-30 -87q-51 6 -82.5 20t-45.5 34t-14 41z" />
    <glyph glyph-name="uogonek" unicode="&#x173;" horiz-adv-x="627" 
d="M50 189v336h160v-301q0 -48 19 -73.5t54 -25.5q22 0 42 7.5t39 24.5t34 44v324h160v-347q0 -24 7.5 -33.5t26.5 -11.5v-133q-22 -4 -38.5 -6t-29.5 -2q-42 0 -67 17.5t-31 49.5l-3 32q-36 -52 -89.5 -76.5t-119.5 -24.5q-80 0 -122 51t-42 148zM418 -113q0 35 27 70.5
t80 64.5h52l15 -22q-36 -24 -55 -45t-19 -38t18 -27t54 -11l-30 -87q-51 6 -82.5 20t-45.5 34t-14 41z" />
    <glyph glyph-name="Wcircumflex" unicode="&#x174;" horiz-adv-x="1055" 
d="M302 709h151l74 -227l74 227h152l-121 -330l72 -189l178 520h179l-277 -710h-142l-115 278l-114 -278h-143l-276 710h178l179 -520l70 189zM360 807l110 108h115l109 -108l-82 -36l-85 63l-85 -63z" />
    <glyph glyph-name="wcircumflex" unicode="&#x175;" horiz-adv-x="850" 
d="M702 525h152l-217 -525h-132l-80 214l-80 -214h-132l-217 525h151l141 -374l50 146l-94 228h131l50 -158l50 158h130l-93 -228l50 -146zM258 622l110 108h115l109 -108l-82 -36l-85 63l-85 -63z" />
    <glyph glyph-name="Ycircumflex" unicode="&#x176;" horiz-adv-x="663" 
d="M178 710l153 -314l155 314h179l-253 -468v-242h-163v244l-249 466h178zM163 807l110 108h115l109 -108l-82 -36l-85 63l-85 -63z" />
    <glyph glyph-name="ycircumflex" unicode="&#x177;" horiz-adv-x="552" 
d="M59 -79q20 -6 37.5 -9.5t31.5 -3.5q19 0 32.5 8.5t23.5 29t18 54.5l-200 525h165l122 -361l104 361h151l-200 -610q-14 -43 -43 -76t-70 -51.5t-90 -18.5q-21 0 -41 3.5t-41 11.5v137zM122 622l110 108h115l109 -108l-82 -36l-85 63l-85 -63z" />
    <glyph glyph-name="Ydieresis" unicode="&#x178;" horiz-adv-x="663" 
d="M178 710l153 -314l155 314h179l-253 -468v-242h-163v244l-249 466h178zM160 779v129h132v-129h-132zM370 779v129h132v-129h-132z" />
    <glyph glyph-name="Zacute" unicode="&#x179;" horiz-adv-x="625" 
d="M28 123l362 443h-348v144h545v-123l-345 -443h349v-144h-563v123zM375 757l-102 28l52 130h145z" />
    <glyph glyph-name="zacute" unicode="&#x17a;" horiz-adv-x="494" 
d="M24 96l267 318h-253v111h421v-96l-264 -318h271v-111h-442v96zM298 572l-102 28l52 130h145z" />
    <glyph glyph-name="Zdotaccent" unicode="&#x17b;" horiz-adv-x="625" 
d="M28 123l362 443h-348v144h545v-123l-345 -443h349v-144h-563v123zM251 778v137h144v-137h-144z" />
    <glyph glyph-name="zdotaccent" unicode="&#x17c;" horiz-adv-x="494" 
d="M24 96l267 318h-253v111h421v-96l-264 -318h271v-111h-442v96zM174 593v137h144v-137h-144z" />
    <glyph glyph-name="Zcaron" unicode="&#x17d;" horiz-adv-x="625" 
d="M28 123l362 443h-348v144h545v-123l-345 -443h349v-144h-563v123zM238 915l85 -63l85 63l82 -37l-109 -107h-115l-110 107z" />
    <glyph glyph-name="zcaron" unicode="&#x17e;" horiz-adv-x="494" 
d="M24 96l267 318h-253v111h421v-96l-264 -318h271v-111h-442v96zM161 730l85 -63l85 63l82 -37l-109 -107h-115l-110 107z" />
    <glyph glyph-name="uni018F" unicode="&#x18f;" horiz-adv-x="752" 
d="M372 -5q-84 0 -149.5 30.5t-111.5 81.5t-70.5 112t-24.5 122q0 17 2 34.5t4 29.5h523q-4 40 -19.5 70.5t-39 51.5t-53 31.5t-61.5 10.5q-34 0 -65 -11.5t-53.5 -33t-31.5 -50.5l-169 52q27 57 73.5 99t109 65.5t137.5 23.5q81 0 146 -30.5t111 -81.5t70 -113.5t24 -126.5
q0 -69 -23.5 -135t-69.5 -118t-111 -83t-148 -31zM374 139q46 0 81.5 17.5t58.5 50t28 75.5h-345q6 -43 30 -75.5t62 -50t85 -17.5z" />
    <glyph glyph-name="florin" unicode="&#x192;" horiz-adv-x="556" 
d="M169 -202q-39 0 -75 12.5t-65 37.5l67 109q9 -11 24 -16t29 -5q16 0 27.5 6.5t18.5 19.5t7 29v352h-67v121h67v61q0 66 22.5 114t64 74.5t96.5 26.5q33 0 67.5 -8t69.5 -23l-29 -120q-15 7 -35.5 11.5t-36.5 4.5q-29 0 -44 -18.5t-15 -55.5v-67h122v-121h-122v-348
q0 -58 -26 -102.5t-69.5 -69.5t-97.5 -25z" />
    <glyph glyph-name="Ohorn" unicode="&#x1a0;" horiz-adv-x="760" 
d="M379 -6q-80 0 -144.5 30.5t-111 82t-71.5 116t-25 133.5q0 71 26.5 135t74 114.5t112.5 79.5t142 29q79 0 143.5 -30.5t111 -82.5t71.5 -116.5t25 -131.5q0 -71 -26 -135t-74 -114.5t-112.5 -80t-141.5 -29.5zM194 354q0 -41 12 -79.5t35.5 -68.5t58.5 -48t80 -18
q47 0 82 18.5t58 49.5t34.5 69.5t11.5 78.5q0 41 -12 79t-36 68.5t-59 47.5t-79 17q-47 0 -81.5 -18t-58 -48.5t-35 -69t-11.5 -78.5zM438 600l2 109q35 0 58 5t35 18q13 14 14.5 31.5t2.5 36.5h113q-1 -24 -3.5 -49.5t-12 -50.5t-31.5 -47q-16 -16 -44.5 -28t-63 -18.5
t-70.5 -6.5z" />
    <glyph glyph-name="ohorn" unicode="&#x1a1;" horiz-adv-x="610" 
d="M305 -10q-67 0 -119.5 22t-88.5 60t-54.5 87t-18.5 103q0 55 18.5 104t54.5 87t88.5 60t119.5 22t119 -22t88 -60t55 -87t19 -104q0 -54 -19 -103t-55 -87t-88 -60t-119 -22zM188 262q0 -41 15.5 -72t41.5 -48t60 -17q33 0 59.5 17.5t41.5 48.5t15 71q0 41 -15 72
t-41.5 48t-59.5 17q-34 0 -60 -17t-41.5 -48t-15.5 -72zM358 415l2 109q35 0 58 5t35 18q13 14 14.5 31.5t2.5 36.5h113q-1 -24 -3.5 -49.5t-12 -50.5t-31.5 -47q-16 -16 -44.5 -28t-63 -18.5t-70.5 -6.5z" />
    <glyph glyph-name="Uhorn" unicode="&#x1af;" horiz-adv-x="747" 
d="M373 -6q-85 0 -145 28.5t-97.5 78t-55 113t-17.5 133.5v363h164v-363q0 -40 8 -77.5t26 -66.5t46.5 -46t70.5 -17q43 0 72 17.5t46 47t25 66.5t8 76v363h164v-363q0 -74 -18.5 -138t-56.5 -112.5t-97.5 -75.5t-142.5 -27zM583 601l2 109q35 0 58 5t35 18q13 14 14.5 31.5
t2.5 36.5h113q-1 -24 -3.5 -49.5t-12 -50.5t-31.5 -47q-16 -16 -44.5 -28t-63 -18.5t-70.5 -6.5z" />
    <glyph glyph-name="uhorn" unicode="&#x1b0;" horiz-adv-x="627" 
d="M50 189v336h160v-301q0 -48 19 -73.5t54 -25.5q22 0 42 7.5t39 24.5t34 44v324h160v-347q0 -24 7.5 -33.5t26.5 -11.5v-133q-22 -4 -38.5 -6t-29.5 -2q-42 0 -67 17.5t-31 49.5l-3 32q-36 -52 -89.5 -76.5t-119.5 -24.5q-80 0 -122 51t-42 148zM473 416l2 109q35 0 58 5
t35 18q13 14 14.5 31.5t2.5 36.5h113q-1 -24 -3.5 -49.5t-12 -50.5t-31.5 -47q-16 -16 -44.5 -28t-63 -18.5t-70.5 -6.5z" />
    <glyph glyph-name="uni01C4" unicode="&#x1c4;" horiz-adv-x="1341" 
d="M744 123l362 443h-348v144h545v-123l-345 -443h349v-144h-563v123zM68 0v710h265q117 0 195.5 -47.5t118.5 -128t40 -178.5q0 -108 -44 -188t-123.5 -124t-186.5 -44h-265zM520 356q0 62 -22 109.5t-64 74t-101 26.5h-101v-422h101q60 0 101.5 27.5t63.5 76t22 108.5z
M954 915l85 -63l85 63l82 -37l-109 -108h-115l-110 108z" />
    <glyph glyph-name="uni01C5" unicode="&#x1c5;" horiz-adv-x="1210" 
d="M68 0v710h265q117 0 195.5 -47.5t118.5 -128t40 -178.5q0 -108 -44 -188t-123.5 -124t-186.5 -44h-265zM520 356q0 62 -22 109.5t-64 74t-101 26.5h-101v-422h101q60 0 101.5 27.5t63.5 76t22 108.5zM740 96l267 318h-253v111h421v-96l-264 -318h271v-111h-442v96z
M877 730l85 -63l85 63l82 -37l-109 -107h-115l-110 107z" />
    <glyph glyph-name="uni01C6" unicode="&#x1c6;" horiz-adv-x="1148" 
d="M25 263q0 77 30 138.5t82 97.5t120 36q55 0 100 -26.5t68 -69.5v291h160v-552q0 -24 8 -33.5t26 -11.5v-133q-42 -8 -68 -8q-41 0 -66.5 18t-31.5 50l-3 27q-28 -49 -76 -73t-101 -24q-54 0 -99.5 20.5t-79 57.5t-51.5 87t-18 108zM426 198v110q-10 27 -28.5 47t-42 32
t-47.5 12q-26 0 -47.5 -11t-37.5 -30.5t-24.5 -44.5t-8.5 -53q0 -29 9.5 -53.5t26.5 -43t40 -28.5t50 -10q17 0 33 5.5t30.5 14.5t26.5 23t20 30zM679 96l266 318h-253v111h422v-96l-265 -318h271v-111h-441v96zM816 730l85 -63l85 63l82 -37l-110 -107h-115l-109 107z" />
    <glyph glyph-name="uni01C7" unicode="&#x1c7;" horiz-adv-x="1079" 
d="M68 0v710h164v-566h344v-144h-508zM625 167q10 -7 42.5 -19.5t76.5 -12.5q35 0 57.5 12t34 36.5t15.5 64t4 95.5v367h164v-361q0 -80 -9 -146t-36.5 -114.5t-82.5 -74t-147 -25.5q-47 0 -85 11t-70 33z" />
    <glyph glyph-name="uni01C8" unicode="&#x1c8;" horiz-adv-x="859" 
d="M68 0v710h164v-566h344v-144h-508zM612 -202q-39 0 -75.5 12.5t-65.5 37.5l67 109q10 -11 24.5 -16t29.5 -5t27 6.5t19 19.5t7 29v534h160v-522q0 -60 -25.5 -106.5t-69 -72.5t-98.5 -26zM645 585v145h160v-145h-160z" />
    <glyph glyph-name="uni01C9" unicode="&#x1c9;" horiz-adv-x="609" 
d="M53 730h160v-543q0 -33 12 -47t34 -14q15 0 30.5 4.5t27.5 10.5l21 -120q-30 -14 -69 -22t-73 -8q-68 0 -105.5 36.5t-37.5 103.5v599zM362 -202q-39 0 -75.5 12.5t-65.5 37.5l67 109q10 -11 24.5 -16t29.5 -5t27 6.5t19 19.5t7 29v534h160v-522q0 -60 -25.5 -106.5
t-69 -72.5t-98.5 -26zM395 585v145h160v-145h-160z" />
    <glyph glyph-name="uni01CA" unicode="&#x1ca;" horiz-adv-x="1253" 
d="M232 406v-406h-164v710h130l329 -418v418h164v-710h-134zM799 167q10 -7 42.5 -19.5t76.5 -12.5q35 0 57.5 12t34 36.5t15.5 64t4 95.5v367h164v-361q0 -80 -9 -146t-36.5 -114.5t-82.5 -74t-147 -25.5q-47 0 -85 11t-70 33z" />
    <glyph glyph-name="uni01CB" unicode="&#x1cb;" horiz-adv-x="1033" 
d="M232 406v-406h-164v710h130l329 -418v418h164v-710h-134zM786 -202q-39 0 -75.5 12.5t-65.5 37.5l67 109q10 -11 24.5 -16t29.5 -5t27 6.5t19 19.5t7 29v534h160v-522q0 -60 -25.5 -106.5t-69 -72.5t-98.5 -26zM819 585v145h160v-145h-160z" />
    <glyph glyph-name="uni01CC" unicode="&#x1cc;" horiz-adv-x="886" 
d="M561 0h-160v295q0 52 -19.5 75.5t-51.5 23.5q-22 0 -45 -12t-41.5 -33t-28.5 -48v-301h-160v525h144v-88q20 31 50 53t69 33.5t85 11.5q51 0 82.5 -18.5t48 -48.5t22 -64.5t5.5 -67.5v-336zM639 -202q-39 0 -75.5 12.5t-65.5 37.5l67 109q10 -11 24.5 -16t29.5 -5t27 6.5
t19 19.5t7 29v534h160v-522q0 -60 -25.5 -106.5t-69 -72.5t-98.5 -26zM672 585v145h160v-145h-160z" />
    <glyph glyph-name="Gcaron" unicode="&#x1e6;" horiz-adv-x="732" 
d="M369 -5q-70 0 -132 26.5t-109 75t-73.5 115t-26.5 148.5q0 74 27 138t75 113t112.5 76.5t139.5 27.5q98 0 173 -42t111 -113l-122 -92q-24 47 -69.5 74t-98.5 27q-40 0 -73.5 -16.5t-58 -46t-37.5 -68.5t-13 -84q0 -46 14 -85t39 -67.5t59.5 -44.5t76.5 -16
q51 0 97.5 25.5t85.5 75.5v-162q-85 -85 -197 -85zM556 252h-138v119h274v-371h-136v252zM297 915l85 -63l85 63l82 -37l-109 -107h-115l-110 107z" />
    <glyph glyph-name="gcaron" unicode="&#x1e7;" horiz-adv-x="640" 
d="M259 -2q-52 0 -95 20.5t-73.5 57t-47.5 84.5t-17 103q0 58 18 107t50.5 86.5t77 58t98.5 20.5q59 0 104 -25.5t72 -70.5v86h139v-489q0 -80 -38.5 -138t-107 -89.5t-158.5 -31.5q-84 0 -144.5 27.5t-105.5 77.5l86 87q29 -33 72 -52.5t92 -19.5q39 0 72 14t52.5 45
t19.5 80v51q-24 -43 -69.5 -66t-96.5 -23zM314 125q19 0 35.5 5.5t30.5 15t26 23t19 29.5v110q-10 28 -29 48.5t-42 31.5t-48 11t-47 -11t-37.5 -31.5t-24 -45.5t-8.5 -52q0 -29 9.5 -53t26.5 -42.5t40 -28.5t49 -10zM233 730l85 -63l85 63l82 -37l-109 -107h-115l-110 107z
" />
    <glyph glyph-name="uni01EA" unicode="&#x1ea;" horiz-adv-x="760" 
d="M379 -6q-80 0 -144.5 30.5t-111 82t-71.5 116t-25 133.5q0 71 26.5 135t74 114.5t112.5 79.5t142 29q79 0 143.5 -30.5t111 -82.5t71.5 -116.5t25 -131.5q0 -71 -26 -135t-74 -114.5t-112.5 -80t-141.5 -29.5zM194 354q0 -41 12 -79.5t35.5 -68.5t58.5 -48t80 -18
q47 0 82 18.5t58 49.5t34.5 69.5t11.5 78.5q0 41 -12 79t-36 68.5t-59 47.5t-79 17q-47 0 -81.5 -18t-58 -48.5t-35 -69t-11.5 -78.5zM292 -106q0 35 27 70.5t80 64.5h52l15 -22q-36 -24 -55 -45t-19 -38t18 -27t54 -11l-30 -87q-51 6 -82.5 20t-45.5 34t-14 41z" />
    <glyph glyph-name="uni01EB" unicode="&#x1eb;" horiz-adv-x="610" 
d="M305 -10q-67 0 -119.5 22t-88.5 60t-54.5 87t-18.5 103q0 55 18.5 104t54.5 87t88.5 60t119.5 22t119 -22t88 -60t55 -87t19 -104q0 -54 -19 -103t-55 -87t-88 -60t-119 -22zM188 262q0 -41 15.5 -72t41.5 -48t60 -17q33 0 59.5 17.5t41.5 48.5t15 71q0 41 -15 72
t-41.5 48t-59.5 17q-34 0 -60 -17t-41.5 -48t-15.5 -72zM212 -113q0 35 27 70.5t80 64.5h52l15 -22q-36 -24 -55 -45t-19 -38t18 -27t54 -11l-30 -87q-51 6 -82.5 20t-45.5 34t-14 41z" />
    <glyph glyph-name="uni01F1" unicode="&#x1f1;" horiz-adv-x="1330" 
d="M68 0v710h265q117 0 195.5 -47.5t118.5 -128t40 -178.5q0 -108 -44 -188t-123.5 -124t-186.5 -44h-265zM520 356q0 62 -22 109.5t-64 74t-101 26.5h-101v-422h101q60 0 101.5 27.5t63.5 76t22 108.5zM734 123l362 443h-348v144h545v-123l-345 -443h349v-144h-563v123z
" />
    <glyph glyph-name="uni01F2" unicode="&#x1f2;" horiz-adv-x="1205" 
d="M68 0v710h265q117 0 195.5 -47.5t118.5 -128t40 -178.5q0 -108 -44 -188t-123.5 -124t-186.5 -44h-265zM520 356q0 62 -22 109.5t-64 74t-101 26.5h-101v-422h101q60 0 101.5 27.5t63.5 76t22 108.5zM736 96l267 318h-253v111h421v-96l-264 -318h271v-111h-442v96z" />
    <glyph glyph-name="uni01F3" unicode="&#x1f3;" horiz-adv-x="1148" 
d="M25 263q0 77 30 138.5t82 97.5t120 36q55 0 100 -26.5t68 -69.5v291h160v-552q0 -24 8 -33.5t26 -11.5v-133q-42 -8 -68 -8q-41 0 -66.5 18t-31.5 50l-3 27q-28 -49 -76 -73t-101 -24q-54 0 -99.5 20.5t-79 57.5t-51.5 87t-18 108zM426 198v110q-10 27 -28.5 47t-42 32
t-47.5 12q-26 0 -47.5 -11t-37.5 -30.5t-24.5 -44.5t-8.5 -53q0 -29 9.5 -53.5t26.5 -43t40 -28.5t50 -10q17 0 33 5.5t30.5 14.5t26.5 23t20 30zM678 96l267 318h-253v111h421v-96l-264 -318h271v-111h-442v96z" />
    <glyph glyph-name="Gacute" unicode="&#x1f4;" horiz-adv-x="732" 
d="M369 -5q-70 0 -132 26.5t-109 75t-73.5 115t-26.5 148.5q0 74 27 138t75 113t112.5 76.5t139.5 27.5q98 0 173 -42t111 -113l-122 -92q-24 47 -69.5 74t-98.5 27q-40 0 -73.5 -16.5t-58 -46t-37.5 -68.5t-13 -84q0 -46 14 -85t39 -67.5t59.5 -44.5t76.5 -16
q51 0 97.5 25.5t85.5 75.5v-162q-85 -85 -197 -85zM556 252h-138v119h274v-371h-136v252zM431 757l-102 28l52 130h145z" />
    <glyph glyph-name="gacute" unicode="&#x1f5;" horiz-adv-x="640" 
d="M259 -2q-52 0 -95 20.5t-73.5 57t-47.5 84.5t-17 103q0 58 18 107t50.5 86.5t77 58t98.5 20.5q59 0 104 -25.5t72 -70.5v86h139v-489q0 -80 -38.5 -138t-107 -89.5t-158.5 -31.5q-84 0 -144.5 27.5t-105.5 77.5l86 87q29 -33 72 -52.5t92 -19.5q39 0 72 14t52.5 45
t19.5 80v51q-24 -43 -69.5 -66t-96.5 -23zM314 125q19 0 35.5 5.5t30.5 15t26 23t19 29.5v110q-10 28 -29 48.5t-42 31.5t-48 11t-47 -11t-37.5 -31.5t-24 -45.5t-8.5 -52q0 -29 9.5 -53t26.5 -42.5t40 -28.5t49 -10zM363 572l-102 28l52 130h145z" />
    <glyph glyph-name="Aringacute" unicode="&#x1fa;" horiz-adv-x="670" 
d="M371 794l-102 25l52 116h146zM247 710h177l244 -710h-168l-55 159h-221l-54 -159h-168zM418 272l-83 273l-85 -273h168zM225 757q0 42 30.5 67t79.5 25q50 0 80.5 -25t30.5 -67t-30.5 -67t-80.5 -25q-49 0 -79.5 25t-30.5 67zM335 798q-17 0 -29.5 -12t-12.5 -29
q0 -16 12.5 -28.5t29.5 -12.5q18 0 30.5 12.5t12.5 28.5q0 17 -12.5 29t-30.5 12z" />
    <glyph glyph-name="aringacute" unicode="&#x1fb;" horiz-adv-x="586" 
d="M22 157q0 52 29 91t80 61.5t117 22.5q32 0 63 -5.5t54 -15.5v23q0 43 -26 66t-79 23q-44 0 -82.5 -15t-81.5 -43l-48 102q52 34 108.5 51t119.5 17q118 0 183.5 -56.5t65.5 -163.5v-137q0 -24 7.5 -33.5t26.5 -11.5v-133q-20 -4 -37.5 -6t-30.5 -2q-45 0 -68.5 18
t-29.5 49l-3 23q-35 -45 -83.5 -68.5t-101.5 -23.5q-52 0 -93.5 22t-65.5 60t-24 85zM340 137q11 9 18 20t7 21v47q-20 8 -44.5 12.5t-45.5 4.5q-44 0 -73 -19.5t-29 -51.5q0 -18 10 -33t27.5 -24t41.5 -9t48 9t40 23zM165 649q0 43 30.5 68t80.5 25t80 -25t30 -68
q0 -41 -30 -66t-80 -25t-80.5 25t-30.5 66zM276 690q-18 0 -30 -11.5t-12 -28.5q0 -16 12 -28.5t30 -12.5q17 0 29.5 12t12.5 29t-12 28.5t-30 11.5zM349 757l-102 28l52 130h145z" />
    <glyph glyph-name="AEacute" unicode="&#x1fc;" horiz-adv-x="968" 
d="M412 710h515v-144h-309v-133h255v-143h-255v-146h318v-144h-481v159h-215l-91 -159h-175zM442 303v224l-133 -224h133zM670 757l-102 28l52 130h145z" />
    <glyph glyph-name="aeacute" unicode="&#x1fd;" horiz-adv-x="939" 
d="M203 -10q-51 0 -92 22t-65 60t-24 85q0 52 29 91t79.5 61.5t116.5 22.5q32 0 61 -5.5t52 -14.5q0 7 1 15t3 15q-3 41 -28 62t-76 21q-43 0 -82 -14.5t-82 -43.5l-47 100q103 68 227 68q60 0 106 -16.5t77 -47.5q34 29 79.5 46.5t101.5 17.5q90 0 152.5 -38t96 -99.5
t33.5 -135.5q0 -12 -1.5 -25.5t-3.5 -23.5h-390q2 -35 19.5 -59t44 -36.5t55.5 -12.5q36 0 68 17t43 46l136 -38q-20 -41 -56 -72.5t-85.5 -49.5t-110.5 -18q-76 0 -134.5 29t-93.5 76q-25 -37 -60.5 -60t-74.5 -34t-75 -11zM250 105q26 0 51 9t41 24q22 17 23 37
q-2 12 -3.5 26t-1.5 27q-20 7 -43 11t-43 4q-43 0 -72 -20t-29 -52q0 -18 10 -33t27.5 -24t39.5 -9zM753 310q-3 34 -18.5 58t-40 38t-56.5 14q-31 0 -56 -14t-40 -38t-18 -58h229zM517 572l-102 28l52 130h145z" />
    <glyph glyph-name="Oslashacute" unicode="&#x1fe;" horiz-adv-x="759" 
d="M379 -6q-80 0 -144.5 30.5t-111 82t-71.5 116t-25 133.5q0 71 26.5 135t74 114.5t112.5 79.5t142 29q79 0 143.5 -30.5t111 -82.5t71.5 -116.5t25 -131.5q0 -71 -26 -135t-74 -114.5t-112.5 -80t-141.5 -29.5zM194 354q0 -41 12 -79.5t35.5 -68.5t58.5 -48t80 -18
q47 0 82 18.5t58 49.5t34.5 69.5t11.5 78.5q0 41 -12 79t-36 68.5t-59 47.5t-79 17q-47 0 -81.5 -18t-58 -48.5t-35 -69t-11.5 -78.5zM721 710l-505 -710h-177l505 710h177zM434 757l-102 28l52 130h145z" />
    <glyph glyph-name="oslashacute" unicode="&#x1ff;" horiz-adv-x="610" 
d="M305 -10q-67 0 -119.5 22t-88.5 60t-54.5 87t-18.5 103t18.5 103.5t54.5 87.5t88.5 60t119.5 22t119 -22t88 -60t55 -87.5t19 -103.5t-19 -103t-55 -87t-88 -60t-119 -22zM305 125q33 0 59.5 17.5t41.5 48.5t15 71q0 41 -15 72t-41.5 48t-59.5 17q-34 0 -60 -17
t-41.5 -48t-15.5 -72t15.5 -72t41.5 -48t60 -17zM29 -5l118 144l59 -47l-84 -97h-93zM215 106l-47 42l228 281l56 -33zM473 406l-68 37l75 87h94zM323 572l-102 28l52 130h145z" />
    <glyph glyph-name="uni0200" unicode="&#x200;" horiz-adv-x="670" 
d="M247 710h177l244 -710h-168l-55 159h-221l-54 -159h-168zM418 272l-83 273l-85 -273h168zM308 916h121l44 -130l-77 -28zM134 916h120l45 -130l-78 -28z" />
    <glyph glyph-name="uni0201" unicode="&#x201;" horiz-adv-x="586" 
d="M22 157q0 52 29 91t80 61.5t117 22.5q32 0 63 -5.5t54 -15.5v23q0 43 -26 66t-79 23q-44 0 -82.5 -15t-81.5 -43l-48 102q52 34 108.5 51t119.5 17q118 0 183.5 -56.5t65.5 -163.5v-137q0 -24 7.5 -33.5t26.5 -11.5v-133q-20 -4 -37.5 -6t-30.5 -2q-45 0 -68.5 18
t-29.5 49l-3 23q-35 -45 -83.5 -68.5t-101.5 -23.5q-52 0 -93.5 22t-65.5 60t-24 85zM340 137q11 9 18 20t7 21v47q-20 8 -44.5 12.5t-45.5 4.5q-44 0 -73 -19.5t-29 -51.5q0 -18 10 -33t27.5 -24t41.5 -9t48 9t40 23zM249 731h121l44 -130l-77 -28zM75 731h120l45 -130
l-78 -28z" />
    <glyph glyph-name="uni0202" unicode="&#x202;" horiz-adv-x="670" 
d="M247 710h177l244 -710h-168l-55 159h-221l-54 -159h-168zM418 272l-83 273l-85 -273h168zM335 845q-24 0 -41.5 -23t-17.5 -54h-85q0 64 40.5 105.5t103.5 41.5q64 0 104 -41.5t40 -105.5h-83q-3 33 -20.5 55t-40.5 22z" />
    <glyph glyph-name="uni0203" unicode="&#x203;" horiz-adv-x="586" 
d="M22 157q0 52 29 91t80 61.5t117 22.5q32 0 63 -5.5t54 -15.5v23q0 43 -26 66t-79 23q-44 0 -82.5 -15t-81.5 -43l-48 102q52 34 108.5 51t119.5 17q118 0 183.5 -56.5t65.5 -163.5v-137q0 -24 7.5 -33.5t26.5 -11.5v-133q-20 -4 -37.5 -6t-30.5 -2q-45 0 -68.5 18
t-29.5 49l-3 23q-35 -45 -83.5 -68.5t-101.5 -23.5q-52 0 -93.5 22t-65.5 60t-24 85zM340 137q11 9 18 20t7 21v47q-20 8 -44.5 12.5t-45.5 4.5q-44 0 -73 -19.5t-29 -51.5q0 -18 10 -33t27.5 -24t41.5 -9t48 9t40 23zM275 660q-24 0 -41.5 -23t-17.5 -54h-85
q0 64 40.5 105.5t103.5 41.5q64 0 104 -41.5t40 -105.5h-83q-3 33 -20.5 55t-40.5 22z" />
    <glyph glyph-name="uni0204" unicode="&#x204;" horiz-adv-x="599" 
d="M567 144v-144h-499v710h490v-144h-326v-138h280v-133h-280v-151h335zM294 916h121l44 -130l-77 -28zM120 916h120l45 -130l-78 -28z" />
    <glyph glyph-name="uni0205" unicode="&#x205;" horiz-adv-x="604" 
d="M306 -10q-67 0 -119 21.5t-88.5 58.5t-55.5 85.5t-19 101.5q0 76 33.5 138.5t96.5 101t152 38.5t151.5 -38t95.5 -99.5t33 -133.5q0 -14 -1.5 -27.5t-2.5 -23.5h-388q3 -35 19.5 -59t42.5 -36.5t55 -12.5q36 0 67.5 17t43.5 46l136 -38q-20 -41 -56.5 -72.5t-86 -49.5
t-109.5 -18zM190 311h228q-4 33 -19 57.5t-40 38t-55 13.5q-31 0 -55.5 -13.5t-39.5 -38t-19 -57.5zM278 731h121l44 -130l-77 -28zM104 731h120l45 -130l-78 -28z" />
    <glyph glyph-name="uni0206" unicode="&#x206;" horiz-adv-x="599" 
d="M567 144v-144h-499v710h490v-144h-326v-138h280v-133h-280v-151h335zM321 845q-24 0 -41.5 -23t-17.5 -54h-85q0 64 40.5 105.5t103.5 41.5q64 0 104 -41.5t40 -105.5h-83q-3 33 -20.5 55t-40.5 22z" />
    <glyph glyph-name="uni0207" unicode="&#x207;" horiz-adv-x="604" 
d="M306 -10q-67 0 -119 21.5t-88.5 58.5t-55.5 85.5t-19 101.5q0 76 33.5 138.5t96.5 101t152 38.5t151.5 -38t95.5 -99.5t33 -133.5q0 -14 -1.5 -27.5t-2.5 -23.5h-388q3 -35 19.5 -59t42.5 -36.5t55 -12.5q36 0 67.5 17t43.5 46l136 -38q-20 -41 -56.5 -72.5t-86 -49.5
t-109.5 -18zM190 311h228q-4 33 -19 57.5t-40 38t-55 13.5q-31 0 -55.5 -13.5t-39.5 -38t-19 -57.5zM304 660q-24 0 -41.5 -23t-17.5 -54h-85q0 64 40.5 105.5t103.5 41.5q64 0 104 -41.5t40 -105.5h-83q-3 33 -20.5 55t-40.5 22z" />
    <glyph glyph-name="uni0208" unicode="&#x208;" horiz-adv-x="300" 
d="M68 0v710h164v-710h-164zM123 916h121l44 -130l-77 -28zM-51 916h120l45 -130l-78 -28z" />
    <glyph glyph-name="uni0209" unicode="&#x209;" horiz-adv-x="270" 
d="M55 0v525h160v-525h-160zM108 731h121l44 -130l-77 -28zM-66 731h120l45 -130l-78 -28z" />
    <glyph glyph-name="uni020A" unicode="&#x20a;" horiz-adv-x="300" 
d="M68 0v710h164v-710h-164zM149 845q-24 0 -41.5 -23t-17.5 -54h-85q0 64 40.5 105.5t103.5 41.5q64 0 104 -41.5t40 -105.5h-83q-3 33 -20.5 55t-40.5 22z" />
    <glyph glyph-name="uni020B" unicode="&#x20b;" horiz-adv-x="270" 
d="M55 0v525h160v-525h-160zM134 660q-24 0 -41.5 -23t-17.5 -54h-85q0 64 40.5 105.5t103.5 41.5q64 0 104 -41.5t40 -105.5h-83q-3 33 -20.5 55t-40.5 22z" />
    <glyph glyph-name="uni020C" unicode="&#x20c;" horiz-adv-x="760" 
d="M379 -6q-80 0 -144.5 30.5t-111 82t-71.5 116t-25 133.5q0 71 26.5 135t74 114.5t112.5 79.5t142 29q79 0 143.5 -30.5t111 -82.5t71.5 -116.5t25 -131.5q0 -71 -26 -135t-74 -114.5t-112.5 -80t-141.5 -29.5zM194 354q0 -41 12 -79.5t35.5 -68.5t58.5 -48t80 -18
q47 0 82 18.5t58 49.5t34.5 69.5t11.5 78.5q0 41 -12 79t-36 68.5t-59 47.5t-79 17q-47 0 -81.5 -18t-58 -48.5t-35 -69t-11.5 -78.5zM355 916h121l44 -130l-77 -28zM181 916h120l45 -130l-78 -28z" />
    <glyph glyph-name="uni020D" unicode="&#x20d;" horiz-adv-x="610" 
d="M305 -10q-67 0 -119.5 22t-88.5 60t-54.5 87t-18.5 103q0 55 18.5 104t54.5 87t88.5 60t119.5 22t119 -22t88 -60t55 -87t19 -104q0 -54 -19 -103t-55 -87t-88 -60t-119 -22zM188 262q0 -41 15.5 -72t41.5 -48t60 -17q33 0 59.5 17.5t41.5 48.5t15 71q0 41 -15 72
t-41.5 48t-59.5 17q-34 0 -60 -17t-41.5 -48t-15.5 -72zM278 731h121l44 -130l-77 -28zM104 731h120l45 -130l-78 -28z" />
    <glyph glyph-name="uni020E" unicode="&#x20e;" horiz-adv-x="760" 
d="M379 -6q-80 0 -144.5 30.5t-111 82t-71.5 116t-25 133.5q0 71 26.5 135t74 114.5t112.5 79.5t142 29q79 0 143.5 -30.5t111 -82.5t71.5 -116.5t25 -131.5q0 -71 -26 -135t-74 -114.5t-112.5 -80t-141.5 -29.5zM194 354q0 -41 12 -79.5t35.5 -68.5t58.5 -48t80 -18
q47 0 82 18.5t58 49.5t34.5 69.5t11.5 78.5q0 41 -12 79t-36 68.5t-59 47.5t-79 17q-47 0 -81.5 -18t-58 -48.5t-35 -69t-11.5 -78.5zM382 845q-24 0 -41.5 -23t-17.5 -54h-85q0 64 40.5 105.5t103.5 41.5q64 0 104 -41.5t40 -105.5h-83q-3 33 -20.5 55t-40.5 22z" />
    <glyph glyph-name="uni020F" unicode="&#x20f;" horiz-adv-x="610" 
d="M305 -10q-67 0 -119.5 22t-88.5 60t-54.5 87t-18.5 103q0 55 18.5 104t54.5 87t88.5 60t119.5 22t119 -22t88 -60t55 -87t19 -104q0 -54 -19 -103t-55 -87t-88 -60t-119 -22zM188 262q0 -41 15.5 -72t41.5 -48t60 -17q33 0 59.5 17.5t41.5 48.5t15 71q0 41 -15 72
t-41.5 48t-59.5 17q-34 0 -60 -17t-41.5 -48t-15.5 -72zM304 660q-24 0 -41.5 -23t-17.5 -54h-85q0 64 40.5 105.5t103.5 41.5q64 0 104 -41.5t40 -105.5h-83q-3 33 -20.5 55t-40.5 22z" />
    <glyph glyph-name="uni0210" unicode="&#x210;" horiz-adv-x="670" 
d="M68 0v710h320q50 0 92.5 -20.5t73.5 -55t48.5 -77.5t17.5 -87t-14 -83.5t-40 -71t-62 -51.5l156 -264h-181l-136 229h-111v-229h-164zM232 372h150q20 0 35.5 12.5t25.5 34.5t10 51t-11.5 50.5t-28.5 33.5t-36 12h-145v-194zM289 915h121l44 -130l-77 -28zM115 915h120
l45 -130l-78 -28z" />
    <glyph glyph-name="uni0211" unicode="&#x211;" horiz-adv-x="400" 
d="M388 388q-58 0 -105 -18.5t-68 -54.5v-315h-160v525h147v-106q27 53 70 83t90 31h16.5t9.5 -1v-144zM191 731h121l44 -130l-77 -28zM17 731h120l45 -130l-78 -28z" />
    <glyph glyph-name="uni0212" unicode="&#x212;" horiz-adv-x="670" 
d="M68 0v710h320q50 0 92.5 -20.5t73.5 -55t48.5 -77.5t17.5 -87t-14 -83.5t-40 -71t-62 -51.5l156 -264h-181l-136 229h-111v-229h-164zM232 372h150q20 0 35.5 12.5t25.5 34.5t10 51t-11.5 50.5t-28.5 33.5t-36 12h-145v-194zM315 844q-24 0 -41.5 -23t-17.5 -54h-85
q0 64 40.5 105.5t103.5 41.5q64 0 104 -41.5t40 -105.5h-83q-3 33 -20.5 55t-40.5 22z" />
    <glyph glyph-name="uni0213" unicode="&#x213;" horiz-adv-x="400" 
d="M388 388q-58 0 -105 -18.5t-68 -54.5v-315h-160v525h147v-106q27 53 70 83t90 31h16.5t9.5 -1v-144zM218 660q-24 0 -41.5 -23t-17.5 -54h-85q0 64 40.5 105.5t103.5 41.5q64 0 104 -41.5t40 -105.5h-83q-3 33 -20.5 55t-40.5 22z" />
    <glyph glyph-name="uni0214" unicode="&#x214;" horiz-adv-x="747" 
d="M373 -6q-85 0 -145 28.5t-97.5 78t-55 113t-17.5 133.5v363h164v-363q0 -40 8 -77.5t26 -66.5t46.5 -46t70.5 -17q43 0 72 17.5t46 47t25 66.5t8 76v363h164v-363q0 -74 -18.5 -138t-56.5 -112.5t-97.5 -75.5t-142.5 -27zM346 916h121l44 -130l-77 -28zM172 916h120
l45 -130l-78 -28z" />
    <glyph glyph-name="uni0215" unicode="&#x215;" horiz-adv-x="627" 
d="M50 189v336h160v-301q0 -48 19 -73.5t54 -25.5q22 0 42 7.5t39 24.5t34 44v324h160v-347q0 -24 7.5 -33.5t26.5 -11.5v-133q-22 -4 -38.5 -6t-29.5 -2q-42 0 -67 17.5t-31 49.5l-3 32q-36 -52 -89.5 -76.5t-119.5 -24.5q-80 0 -122 51t-42 148zM277 731h121l44 -130
l-77 -28zM103 731h120l45 -130l-78 -28z" />
    <glyph glyph-name="uni0216" unicode="&#x216;" horiz-adv-x="747" 
d="M373 -6q-85 0 -145 28.5t-97.5 78t-55 113t-17.5 133.5v363h164v-363q0 -40 8 -77.5t26 -66.5t46.5 -46t70.5 -17q43 0 72 17.5t46 47t25 66.5t8 76v363h164v-363q0 -74 -18.5 -138t-56.5 -112.5t-97.5 -75.5t-142.5 -27zM373 845q-24 0 -41.5 -23t-17.5 -54h-85
q0 64 40.5 105.5t103.5 41.5q64 0 104 -41.5t40 -105.5h-83q-3 33 -20.5 55t-40.5 22z" />
    <glyph glyph-name="uni0217" unicode="&#x217;" horiz-adv-x="627" 
d="M50 189v336h160v-301q0 -48 19 -73.5t54 -25.5q22 0 42 7.5t39 24.5t34 44v324h160v-347q0 -24 7.5 -33.5t26.5 -11.5v-133q-22 -4 -38.5 -6t-29.5 -2q-42 0 -67 17.5t-31 49.5l-3 32q-36 -52 -89.5 -76.5t-119.5 -24.5q-80 0 -122 51t-42 148zM303 660q-24 0 -41.5 -23
t-17.5 -54h-85q0 64 40.5 105.5t103.5 41.5q64 0 104 -41.5t40 -105.5h-83q-3 33 -20.5 55t-40.5 22z" />
    <glyph glyph-name="uni0218" unicode="&#x218;" horiz-adv-x="615" 
d="M494 502q-3 5 -21 15.5t-45 22.5t-59 21t-64 9q-42 0 -65 -14.5t-23 -44.5q0 -24 17.5 -38t50.5 -24.5t81 -24.5q68 -18 118 -43.5t76.5 -65.5t26.5 -106q0 -60 -22 -101.5t-59.5 -67t-85.5 -37t-99 -11.5q-52 0 -106.5 10.5t-104.5 30t-92 47.5l72 143q4 -5 26 -18.5
t54.5 -28t72.5 -25.5t81 -11q44 0 65.5 14t21.5 39q0 27 -22.5 42t-61 27t-88.5 27q-65 20 -107.5 45t-63 61t-20.5 90q0 75 35.5 126.5t95.5 78t131 26.5q50 0 96.5 -12t87 -30t72.5 -36zM268 -213l31 67h-48v99h134v-99l-47 -67h-70z" />
    <glyph glyph-name="uni0219" unicode="&#x219;" horiz-adv-x="497" 
d="M256 -10q-67 0 -131 22t-108 65l55 101q48 -35 93.5 -53t85.5 -18q31 0 48 10t17 31q0 15 -10 23.5t-30.5 15.5t-50.5 15q-60 20 -100 39t-60 46.5t-20 71.5q0 53 26.5 92.5t75.5 61.5t117 22q54 0 105.5 -17t96.5 -57l-62 -100q-45 31 -80 45t-68 14q-17 0 -31 -4
t-22.5 -13.5t-8.5 -24.5t8.5 -24t27 -15.5t46.5 -15.5q65 -19 108 -38.5t64.5 -48t21.5 -75.5q0 -80 -57.5 -125.5t-156.5 -45.5zM205 -213l31 67h-48v99h134v-99l-47 -67h-70z" />
    <glyph glyph-name="uni021A" unicode="&#x21a;" horiz-adv-x="621" 
d="M609 566h-216v-566h-164v566h-217v144h597v-144zM257 -213l31 67h-48v99h134v-99l-47 -67h-70z" />
    <glyph glyph-name="uni021B" unicode="&#x21b;" horiz-adv-x="402" 
d="M395 28q-22 -9 -48.5 -18t-55.5 -14.5t-57 -5.5q-40 0 -73.5 13.5t-53 44.5t-19.5 82v274h-67v121h67v167h160v-167h107v-121h-107v-219q0 -26 13 -37.5t33 -11.5q17 0 36.5 6t33.5 13zM179 -213l31 67h-48v99h134v-99l-47 -67h-70z" />
    <glyph glyph-name="uni022A" unicode="&#x22a;" horiz-adv-x="760" 
d="M379 -6q-80 0 -144.5 30.5t-111 82t-71.5 116t-25 133.5q0 71 26.5 135t74 114.5t112.5 79.5t142 29q79 0 143.5 -30.5t111 -82.5t71.5 -116.5t25 -131.5q0 -71 -26 -135t-74 -114.5t-112.5 -80t-141.5 -29.5zM194 354q0 -41 12 -79.5t35.5 -68.5t58.5 -48t80 -18
q47 0 82 18.5t58 49.5t34.5 69.5t11.5 78.5q0 41 -12 79t-36 68.5t-59 47.5t-79 17q-47 0 -81.5 -18t-58 -48.5t-35 -69t-11.5 -78.5zM211 779v129h132v-129h-132zM421 779v129h132v-129h-132zM231 1002v97h304v-97h-304z" />
    <glyph glyph-name="uni022B" unicode="&#x22b;" horiz-adv-x="610" 
d="M305 -10q-67 0 -119.5 22t-88.5 60t-54.5 87t-18.5 103q0 55 18.5 104t54.5 87t88.5 60t119.5 22t119 -22t88 -60t55 -87t19 -104q0 -54 -19 -103t-55 -87t-88 -60t-119 -22zM188 262q0 -41 15.5 -72t41.5 -48t60 -17q33 0 59.5 17.5t41.5 48.5t15 71q0 41 -15 72
t-41.5 48t-59.5 17q-34 0 -60 -17t-41.5 -48t-15.5 -72zM134 594v129h132v-129h-132zM344 594v129h132v-129h-132zM154 817v97h304v-97h-304z" />
    <glyph glyph-name="uni022C" unicode="&#x22c;" horiz-adv-x="760" 
d="M379 -6q-80 0 -144.5 30.5t-111 82t-71.5 116t-25 133.5q0 71 26.5 135t74 114.5t112.5 79.5t142 29q79 0 143.5 -30.5t111 -82.5t71.5 -116.5t25 -131.5q0 -71 -26 -135t-74 -114.5t-112.5 -80t-141.5 -29.5zM194 354q0 -41 12 -79.5t35.5 -68.5t58.5 -48t80 -18
q47 0 82 18.5t58 49.5t34.5 69.5t11.5 78.5q0 41 -12 79t-36 68.5t-59 47.5t-79 17q-47 0 -81.5 -18t-58 -48.5t-35 -69t-11.5 -78.5zM449 773q-30 0 -52 11.5t-40 23t-41 11.5q-22 0 -32 -11t-12.5 -23t-2.5 -14h-86q0 11 6.5 34.5t22 48t39.5 42t59 17.5q32 0 52.5 -12
t39 -24t41.5 -12q24 0 34.5 11.5t14 24.5t3.5 14h86q0 -8 -7 -30.5t-22.5 -48t-40.5 -44.5t-62 -19zM231 1011v97h304v-97h-304z" />
    <glyph glyph-name="uni022D" unicode="&#x22d;" horiz-adv-x="610" 
d="M305 -10q-67 0 -119.5 22t-88.5 60t-54.5 87t-18.5 103q0 55 18.5 104t54.5 87t88.5 60t119.5 22t119 -22t88 -60t55 -87t19 -104q0 -54 -19 -103t-55 -87t-88 -60t-119 -22zM188 262q0 -41 15.5 -72t41.5 -48t60 -17q33 0 59.5 17.5t41.5 48.5t15 71q0 41 -15 72
t-41.5 48t-59.5 17q-34 0 -60 -17t-41.5 -48t-15.5 -72zM372 588q-30 0 -52 11.5t-40 23t-41 11.5q-22 0 -32 -11t-12.5 -23t-2.5 -14h-86q0 11 6.5 34.5t22 48t39.5 42t59 17.5q32 0 52.5 -12t39 -24t41.5 -12q24 0 34.5 11.5t14 24.5t3.5 14h86q0 -8 -7 -30.5t-22.5 -48
t-40.5 -44.5t-62 -19zM154 826v97h304v-97h-304z" />
    <glyph glyph-name="uni0230" unicode="&#x230;" horiz-adv-x="760" 
d="M379 -6q-80 0 -144.5 30.5t-111 82t-71.5 116t-25 133.5q0 71 26.5 135t74 114.5t112.5 79.5t142 29q79 0 143.5 -30.5t111 -82.5t71.5 -116.5t25 -131.5q0 -71 -26 -135t-74 -114.5t-112.5 -80t-141.5 -29.5zM194 354q0 -41 12 -79.5t35.5 -68.5t58.5 -48t80 -18
q47 0 82 18.5t58 49.5t34.5 69.5t11.5 78.5q0 41 -12 79t-36 68.5t-59 47.5t-79 17q-47 0 -81.5 -18t-58 -48.5t-35 -69t-11.5 -78.5zM310 778v137h144v-137h-144zM231 1011v97h304v-97h-304z" />
    <glyph glyph-name="uni0231" unicode="&#x231;" horiz-adv-x="610" 
d="M305 -10q-67 0 -119.5 22t-88.5 60t-54.5 87t-18.5 103q0 55 18.5 104t54.5 87t88.5 60t119.5 22t119 -22t88 -60t55 -87t19 -104q0 -54 -19 -103t-55 -87t-88 -60t-119 -22zM188 262q0 -41 15.5 -72t41.5 -48t60 -17q33 0 59.5 17.5t41.5 48.5t15 71q0 41 -15 72
t-41.5 48t-59.5 17q-34 0 -60 -17t-41.5 -48t-15.5 -72zM233 593v137h144v-137h-144zM154 826v97h304v-97h-304z" />
    <glyph glyph-name="uni0232" unicode="&#x232;" horiz-adv-x="663" 
d="M178 710l153 -314l155 314h179l-253 -468v-242h-163v244l-249 466h178zM180 806v97h304v-97h-304z" />
    <glyph glyph-name="uni0233" unicode="&#x233;" horiz-adv-x="552" 
d="M59 -79q20 -6 37.5 -9.5t31.5 -3.5q19 0 32.5 8.5t23.5 29t18 54.5l-200 525h165l122 -361l104 361h151l-200 -610q-14 -43 -43 -76t-70 -51.5t-90 -18.5q-21 0 -41 3.5t-41 11.5v137zM138 621v97h304v-97h-304z" />
    <glyph glyph-name="uni0237" unicode="&#x237;" horiz-adv-x="270" 
d="M22 -202q-39 0 -75.5 12.5t-65.5 37.5l67 109q10 -11 24.5 -16t29.5 -5t27 6.5t19 19.5t7 29v534h160v-522q0 -60 -25.5 -106.5t-69 -72.5t-98.5 -26z" />
    <glyph glyph-name="uni0259" unicode="&#x259;" horiz-adv-x="604" 
d="M299 -10q-89 0 -152 37.5t-96 100t-33 134.5q0 12 1 26t3 24h388q-3 35 -19.5 59t-42.5 36t-55 12q-36 0 -67.5 -17t-43.5 -46l-136 39q21 41 57 72.5t85.5 49.5t109.5 18q67 0 119 -21.5t88 -59t55.5 -86t19.5 -102.5q0 -75 -33 -137.5t-95.5 -100.5t-152.5 -38z
M301 105q31 0 55 13.5t39 38.5t18 57h-226q3 -33 18.5 -57.5t40.5 -38t55 -13.5z" />
    <glyph glyph-name="uni02B9" unicode="&#x2b9;" horiz-adv-x="250" 
d="M57 497v229h135l-37 -229h-98z" />
    <glyph glyph-name="uni02BA" unicode="&#x2ba;" horiz-adv-x="499" 
d="M57 497v229h135l-37 -229h-98zM307 497v229h135l-37 -229h-98z" />
    <glyph glyph-name="uni02BB" unicode="&#x2bb;" horiz-adv-x="220" 
d="M141 730l-31 -61h47v-90h-133v90l46 61h71z" />
    <glyph glyph-name="uni02BC" unicode="&#x2bc;" horiz-adv-x="269" 
d="M148 572l-102 28l52 130h145z" />
    <glyph glyph-name="uni02BE" unicode="&#x2be;" horiz-adv-x="157" 
d="M23 558v51q18 0 30.5 12t12.5 29t-12.5 28.5t-30.5 11.5v52q50 0 80.5 -25t30.5 -68q0 -41 -30.5 -66t-80.5 -25z" />
    <glyph glyph-name="uni02BF" unicode="&#x2bf;" horiz-adv-x="157" 
d="M134 558q-50 0 -80.5 25t-30.5 66q0 43 30.5 68t80.5 25v-52q-18 0 -30 -11.5t-12 -28.5q0 -16 12 -28.5t30 -12.5v-51z" />
    <glyph glyph-name="circumflex" unicode="&#x2c6;" horiz-adv-x="384" 
d="M25 622l110 108h115l109 -108l-82 -36l-85 63l-85 -63z" />
    <glyph glyph-name="caron" unicode="&#x2c7;" horiz-adv-x="384" 
d="M107 730l85 -63l85 63l82 -37l-109 -107h-115l-110 107z" />
    <glyph glyph-name="uni02C8" unicode="&#x2c8;" horiz-adv-x="294" 
d="M215 775v-390h-136v390h136z" />
    <glyph glyph-name="uni02C9" unicode="&#x2c9;" horiz-adv-x="428" 
d="M62 621v97h304v-97h-304z" />
    <glyph glyph-name="uni02CA" unicode="&#x2ca;" horiz-adv-x="250" 
d="M57 497v229h135l-37 -229h-98z" />
    <glyph glyph-name="uni02CB" unicode="&#x2cb;" horiz-adv-x="250" 
d="M94 497l-37 229h135v-229h-98z" />
    <glyph glyph-name="uni02CC" unicode="&#x2cc;" horiz-adv-x="294" 
d="M215 260v-390h-136v390h136z" />
    <glyph glyph-name="breve" unicode="&#x2d8;" horiz-adv-x="347" 
d="M173 653q23 0 40.5 22t20.5 55h83q0 -64 -40 -105.5t-104 -41.5q-63 0 -103.5 41.5t-40.5 105.5h85q0 -31 17.5 -54t41.5 -23z" />
    <glyph glyph-name="dotaccent" unicode="&#x2d9;" horiz-adv-x="244" 
d="M50 593v137h144v-137h-144z" />
    <glyph glyph-name="ring" unicode="&#x2da;" horiz-adv-x="268" 
d="M23 649q0 43 30.5 68t80.5 25t80 -25t30 -68q0 -41 -30 -66t-80 -25t-80.5 25t-30.5 66zM134 690q-18 0 -30 -11.5t-12 -28.5q0 -16 12 -28.5t30 -12.5q17 0 29.5 12t12.5 29t-12 28.5t-30 11.5z" />
    <glyph glyph-name="ogonek" unicode="&#x2db;" horiz-adv-x="309" 
d="M68 -112q0 35 27 70.5t80 64.5h52l15 -22q-36 -24 -55 -45t-19 -38t18 -27t54 -11l-30 -87q-51 6 -82.5 20t-45.5 34t-14 41z" />
    <glyph glyph-name="tilde" unicode="&#x2dc;" horiz-adv-x="450" 
d="M292 588q-30 0 -52 11.5t-40 23t-41 11.5q-22 0 -32 -11t-12.5 -23t-2.5 -14h-86q0 11 6.5 34.5t22 48t39.5 42t59 17.5q32 0 52.5 -12t39 -24t41.5 -12q24 0 34.5 11.5t14 24.5t3.5 14h86q0 -8 -7 -30.5t-22.5 -48t-40.5 -44.5t-62 -19z" />
    <glyph glyph-name="hungarumlaut" unicode="&#x2dd;" horiz-adv-x="381" 
d="M106 572l-77 28l45 130h120zM281 572l-77 28l44 130h120z" />
    <glyph glyph-name="gravecomb" unicode="&#x300;" 
d="M46 730h145l52 -130l-101 -28z" />
    <glyph glyph-name="acutecomb" unicode="&#x301;" 
d="M148 572l-102 28l52 130h145z" />
    <glyph glyph-name="uni0302" unicode="&#x302;" 
d="M25 622l110 108h115l109 -108l-82 -36l-85 63l-85 -63z" />
    <glyph glyph-name="tildecomb" unicode="&#x303;" 
d="M292 588q-30 0 -52 11.5t-40 23t-41 11.5q-22 0 -32 -11t-12.5 -23t-2.5 -14h-86q0 11 6.5 34.5t22 48t39.5 42t59 17.5q32 0 52.5 -12t39 -24t41.5 -12q24 0 34.5 11.5t14 24.5t3.5 14h86q0 -8 -7 -30.5t-22.5 -48t-40.5 -44.5t-62 -19z" />
    <glyph glyph-name="uni0304" unicode="&#x304;" 
d="M62 621v97h304v-97h-304z" />
    <glyph glyph-name="uni0306" unicode="&#x306;" 
d="M173 653q23 0 40.5 22t20.5 55h83q0 -64 -40 -105.5t-104 -41.5q-63 0 -103.5 41.5t-40.5 105.5h85q0 -31 17.5 -54t41.5 -23z" />
    <glyph glyph-name="uni0307" unicode="&#x307;" 
d="M50 593v137h144v-137h-144z" />
    <glyph glyph-name="uni0308" unicode="&#x308;" 
d="M83 593v129h132v-129h-132zM293 593v129h132v-129h-132z" />
    <glyph glyph-name="hookabovecomb" unicode="&#x309;" 
d="M255 682l-46 45q28 27 54 39.5t54 12.5q42 0 66 -22t24 -57q0 -34 -16.5 -58.5t-52.5 -53.5l-39 41q17 13 25.5 25t8.5 24q0 13 -8 21t-21 8q-14 0 -24 -6t-25 -19z" />
    <glyph glyph-name="uni030A" unicode="&#x30a;" 
d="M23 649q0 43 30.5 68t80.5 25t80 -25t30 -68q0 -41 -30 -66t-80 -25t-80.5 25t-30.5 66zM134 690q-18 0 -30 -11.5t-12 -28.5q0 -16 12 -28.5t30 -12.5q17 0 29.5 12t12.5 29t-12 28.5t-30 11.5z" />
    <glyph glyph-name="uni030B" unicode="&#x30b;" 
d="M106 572l-77 28l45 130h120zM281 572l-77 28l44 130h120z" />
    <glyph glyph-name="uni030C" unicode="&#x30c;" 
d="M107 730l85 -63l85 63l82 -37l-109 -107h-115l-110 107z" />
    <glyph glyph-name="uni030F" unicode="&#x30f;" 
d="M187 730h121l44 -130l-77 -28zM13 730h120l45 -130l-78 -28z" />
    <glyph glyph-name="uni0311" unicode="&#x311;" 
d="M173 660q-24 0 -41.5 -23t-17.5 -54h-85q0 64 40.5 105.5t103.5 41.5q64 0 104 -41.5t40 -105.5h-83q-3 33 -20.5 55t-40.5 22z" />
    <glyph glyph-name="uni0312" unicode="&#x312;" 
d="M141 730l-31 -61h47v-90h-133v90l46 61h71z" />
    <glyph glyph-name="uni031B" unicode="&#x31b;" 
d="M50 477l2 109q35 0 58 5t35 18q13 14 14.5 31.5t2.5 36.5h113q-1 -24 -3.5 -49.5t-12 -50.5t-31.5 -47q-16 -16 -44.5 -28t-63 -18.5t-70.5 -6.5z" />
    <glyph glyph-name="dotbelowcomb" unicode="&#x323;" 
d="M50 -206v137h144v-137h-144z" />
    <glyph glyph-name="uni0324" unicode="&#x324;" 
d="M83 -206v129h132v-129h-132zM293 -206v129h132v-129h-132z" />
    <glyph glyph-name="uni0326" unicode="&#x326;" 
d="M79 -213l31 67h-48v99h134v-99l-47 -67h-70z" />
    <glyph glyph-name="uni0327" unicode="&#x327;" 
d="M148 -210q-28 0 -59.5 8t-62.5 24l38 83q14 -10 28 -15t29 -5q21 0 34.5 11t13.5 31t-12.5 37.5t-36.5 35.5l52 32q39 -27 65.5 -59t26.5 -77q0 -43 -29 -74.5t-87 -31.5z" />
    <glyph glyph-name="uni0328" unicode="&#x328;" 
d="M68 -112q0 35 27 70.5t80 64.5h52l15 -22q-36 -24 -55 -45t-19 -38t18 -27t54 -11l-30 -87q-51 6 -82.5 20t-45.5 34t-14 41z" />
    <glyph glyph-name="uni032E" unicode="&#x32e;" 
d="M173 -129q23 0 40.5 22t20.5 55h83q0 -64 -40 -105.5t-104 -41.5q-63 0 -103.5 41.5t-40.5 105.5h85q0 -31 17.5 -54t41.5 -23z" />
    <glyph glyph-name="uni0331" unicode="&#x331;" 
d="M62 -174v97h304v-97h-304z" />
    <glyph glyph-name="uni0335" unicode="&#x335;" 
d="M50 240v94h315v-94h-315z" />
    <glyph glyph-name="uni0394" unicode="&#x394;" horiz-adv-x="655" 
d="M395 710l244 -584v-126h-623v126l246 584h133zM179 144h302l-153 385z" />
    <glyph glyph-name="uni03A9" unicode="&#x3a9;" horiz-adv-x="783" 
d="M34 0v114h158q-46 26 -79 65t-51 88.5t-18 104.5q0 68 26 129.5t73 109.5t110.5 76t137.5 28q75 0 138 -28t110.5 -76t73 -109.5t25.5 -129.5q0 -55 -18 -104.5t-51 -88.5t-78 -65h157v-114h-317v114q34 14 61 40t46 61.5t29 75.5t10 81q0 37 -12.5 72t-37 63t-58.5 45
t-78 17q-43 0 -77.5 -17t-58.5 -45t-36.5 -63t-12.5 -72q0 -41 10 -81t29 -75.5t46 -61.5t60 -40v-114h-317z" />
    <glyph glyph-name="uni03BC" unicode="&#x3bc;" horiz-adv-x="639" 
d="M55 -213v738h160v-301q0 -48 19 -73.5t58 -25.5q19 0 39 7.5t38.5 24.5t33.5 44v324h160v-345q0 -24 9 -33.5t32 -11.5v-135q-24 -4 -42.5 -6t-32.5 -2q-43 0 -67.5 18t-30.5 51l-3 30q-8 -19 -30.5 -43t-53 -41t-62.5 -17q-24 0 -40.5 9t-25.5 20.5t-11 18.5l8 -251
h-158z" />
    <glyph glyph-name="pi" unicode="&#x3c0;" horiz-adv-x="661" 
d="M258 386v-386h-159v386h-73v136h582v-136h-88v-199q0 -29 13 -44.5t38 -15.5q12 0 26.5 4t26.5 10l21 -120q-30 -14 -69 -22t-73 -8q-68 0 -105.5 36.5t-37.5 103.5v255h-102z" />
    <glyph glyph-name="uni0400" unicode="&#x400;" horiz-adv-x="599" 
d="M567 144v-144h-499v710h490v-144h-326v-138h280v-133h-280v-151h335zM185 915h145l52 -130l-101 -28z" />
    <glyph glyph-name="uni0401" unicode="&#x401;" horiz-adv-x="599" 
d="M567 144v-144h-499v710h490v-144h-326v-138h280v-133h-280v-151h335zM150 779v129h132v-129h-132zM360 779v129h132v-129h-132z" />
    <glyph glyph-name="uni0402" unicode="&#x402;" horiz-adv-x="775" 
d="M491 -9q-30 0 -60.5 4.5t-60.5 14.5l41 125q15 -6 32 -10.5t33 -4.5q47 0 79.5 24.5t32.5 81.5q0 38 -17 63.5t-45.5 37.5t-64.5 12q-38 0 -78.5 -13.5t-77.5 -39.5v-286h-160v571h-133v139h567v-139h-274v-164q40 27 88 41.5t99 14.5q76 0 132 -30t86.5 -83t30.5 -124
q0 -112 -66.5 -173.5t-183.5 -61.5z" />
    <glyph glyph-name="uni0403" unicode="&#x403;" horiz-adv-x="544" 
d="M71 0v710h448v-144h-284v-566h-164zM385 757l-102 28l52 130h145z" />
    <glyph glyph-name="uni0404" unicode="&#x404;" horiz-adv-x="717" 
d="M379 -6q-80 0 -145 30.5t-111.5 83t-71 118t-24.5 135.5q0 66 23 129t68.5 113.5t112 80.5t154.5 30q101 0 175 -43t110 -112l-126 -88q-15 38 -42.5 59t-59 29.5t-61.5 8.5q-36 0 -65.5 -10.5t-51.5 -29.5t-36.5 -44.5t-21.5 -55.5h234v-131h-238q5 -33 20.5 -62
t39.5 -50t55 -33t66 -12q31 0 62.5 10t58 31.5t41.5 56.5l134 -79q-21 -52 -70 -89t-109.5 -56.5t-120.5 -19.5z" />
    <glyph glyph-name="uni0405" unicode="&#x405;" horiz-adv-x="615" 
d="M494 502q-3 5 -21 15.5t-45 22.5t-59 21t-64 9q-42 0 -65 -14.5t-23 -44.5q0 -24 17.5 -38t50.5 -24.5t81 -24.5q68 -18 118 -43.5t76.5 -65.5t26.5 -106q0 -60 -22 -101.5t-59.5 -67t-85.5 -37t-99 -11.5q-52 0 -106.5 10.5t-104.5 30t-92 47.5l72 143q4 -5 26 -18.5
t54.5 -28t72.5 -25.5t81 -11q44 0 65.5 14t21.5 39q0 27 -22.5 42t-61 27t-88.5 27q-65 20 -107.5 45t-63 61t-20.5 90q0 75 35.5 126.5t95.5 78t131 26.5q50 0 96.5 -12t87 -30t72.5 -36z" />
    <glyph glyph-name="uni0406" unicode="&#x406;" horiz-adv-x="300" 
d="M68 0v710h164v-710h-164z" />
    <glyph glyph-name="uni0407" unicode="&#x407;" horiz-adv-x="300" 
d="M68 0v710h164v-710h-164zM-21 779v129h132v-129h-132zM189 779v129h132v-129h-132z" />
    <glyph glyph-name="uni0408" unicode="&#x408;" horiz-adv-x="494" 
d="M40 167q10 -7 42.5 -19.5t76.5 -12.5q35 0 57.5 12t34 36.5t15.5 64t4 95.5v367h164v-361q0 -80 -9 -146t-36.5 -114.5t-82.5 -74t-147 -25.5q-47 0 -85 11t-70 33z" />
    <glyph glyph-name="uni0409" unicode="&#x409;" horiz-adv-x="1041" 
d="M28 -6v142q35 4 60.5 19.5t43 54.5t27 111.5t12.5 188.5l7 200h478v-260h120q76 0 130 -27.5t83 -78t29 -119.5q0 -68 -28 -118t-79.5 -78.5t-125.5 -28.5h-293v566h-166l-2 -112q-3 -112 -15.5 -191.5t-35 -131.5t-57 -82t-81 -42.5t-107.5 -12.5zM656 134h106
q30 0 49.5 11.5t29 32.5t9.5 47q0 24 -9.5 44.5t-29 33.5t-50.5 13h-105v-182z" />
    <glyph glyph-name="uni040A" unicode="&#x40a;" horiz-adv-x="1046" 
d="M71 0v710h164v-273h262v273h165v-265h119q114 0 178 -59.5t64 -162.5q0 -67 -27.5 -117t-79.5 -78t-126 -28h-293v294h-262v-294h-164zM662 134h105q31 0 50 11.5t28.5 32t9.5 45.5q0 23 -9 43t-28.5 32.5t-51.5 12.5h-104v-177z" />
    <glyph glyph-name="uni040B" unicode="&#x40b;" horiz-adv-x="756" 
d="M145 0v571h-133v139h551v-139h-258v-143q34 14 75.5 22.5t87.5 8.5q114 0 178.5 -61.5t64.5 -194.5v-203h-161v185q0 59 -26.5 90t-89.5 31q-35 0 -69 -9t-60 -23v-274h-160z" />
    <glyph glyph-name="uni040C" unicode="&#x40c;" horiz-adv-x="709" 
d="M71 0v710h163v-275h56l198 275h182l-254 -343l276 -367h-199l-208 286h-51v-286h-163zM401 757l-102 28l52 130h145z" />
    <glyph glyph-name="uni040D" unicode="&#x40d;" horiz-adv-x="768" 
d="M72 0v710h164v-477l306 477h153v-710h-164v474l-302 -474h-157zM248 915h145l52 -130l-101 -28z" />
    <glyph glyph-name="uni040E" unicode="&#x40e;" horiz-adv-x="648" 
d="M132 -6v135h63q26 0 40 10.5t22 33.5l9 24l-273 513h181l165 -347l146 347h173l-277 -614q-29 -57 -66.5 -79.5t-99.5 -22.5h-83zM333 753q-80 0 -128 42.5t-48 110.5h94q0 -31 20.5 -51.5t61.5 -20.5q40 0 59 19.5t23 52.5h95q0 -68 -48.5 -110.5t-128.5 -42.5z" />
    <glyph glyph-name="uni040F" unicode="&#x40f;" horiz-adv-x="716" 
d="M290 -136v136h-222v710h164v-566h252v566h164v-710h-218v-136h-140z" />
    <glyph glyph-name="uni0410" unicode="&#x410;" horiz-adv-x="670" 
d="M247 710h177l244 -710h-168l-55 159h-221l-54 -159h-168zM418 272l-83 273l-85 -273h168z" />
    <glyph glyph-name="uni0411" unicode="&#x411;" horiz-adv-x="674" 
d="M71 0v710h526v-141h-362v-142h175q121 0 182.5 -56.5t61.5 -152.5q0 -66 -26.5 -115t-78.5 -76t-130 -27h-348zM235 141h161q33 0 52.5 12t28 30.5t8.5 39.5q0 20 -7.5 38t-27.5 28.5t-56 10.5h-159v-159z" />
    <glyph glyph-name="uni0412" unicode="&#x412;" horiz-adv-x="684" 
d="M655 182q0 -61 -32.5 -101.5t-87.5 -60.5t-121 -20h-346v710h395q50 0 86.5 -26.5t56 -68.5t19.5 -87q0 -50 -26 -95.5t-76 -68.5q61 -18 96.5 -64t35.5 -118zM488 215q0 23 -9 40.5t-23.5 28t-34.5 10.5h-189v-155h182q21 0 37.5 10t26.5 27t10 39zM232 570v-147h161
q18 0 33.5 8t25.5 24.5t10 41.5q0 24 -8.5 40t-22.5 24.5t-32 8.5h-167z" />
    <glyph glyph-name="uni0413" unicode="&#x413;" horiz-adv-x="544" 
d="M71 0v710h448v-144h-284v-566h-164z" />
    <glyph glyph-name="uni0414" unicode="&#x414;" horiz-adv-x="806" 
d="M28 -136v280h40q26 0 45.5 20.5t33.5 64t22 112t11 164.5l6 205h492v-566h97v-280h-144v136h-460v-136h-143zM260 144h254v422h-179l-2 -84q-2 -91 -9.5 -157.5t-22.5 -111t-41 -69.5z" />
    <glyph glyph-name="uni0415" unicode="&#x415;" horiz-adv-x="599" 
d="M567 144v-144h-499v710h490v-144h-326v-138h280v-133h-280v-151h335z" />
    <glyph glyph-name="uni0416" unicode="&#x416;" horiz-adv-x="1104" 
d="M17 0l273 368l-252 342h191l195 -275h46v275h164v-275h46l195 275h191l-252 -342l273 -368h-188l-217 286h-48v-286h-164v286h-48l-217 -286h-188z" />
    <glyph glyph-name="uni0417" unicode="&#x417;" horiz-adv-x="629" 
d="M317 -7q-92 0 -165.5 37t-116.5 103l123 76q24 -37 63.5 -58.5t91.5 -21.5q59 0 86 24t27 61q0 25 -11.5 44t-36 29.5t-62.5 10.5h-91v123h92q31 0 51 9.5t29.5 26t9.5 38.5t-10.5 38.5t-32.5 26t-57 9.5q-56 0 -95 -21t-59 -54l-119 84q45 62 111.5 99.5t168.5 37.5
q79 0 135 -22t86.5 -65.5t30.5 -107.5q0 -46 -22.5 -88.5t-74.5 -66.5q59 -17 91 -62t32 -105q0 -67 -36 -112.5t-98 -69t-141 -23.5z" />
    <glyph glyph-name="uni0418" unicode="&#x418;" horiz-adv-x="768" 
d="M72 0v710h164v-477l306 477h153v-710h-164v474l-302 -474h-157z" />
    <glyph glyph-name="uni0419" unicode="&#x419;" horiz-adv-x="768" 
d="M72 0v710h164v-477l306 477h153v-710h-164v474l-302 -474h-157zM384 748q-59 0 -104.5 20.5t-70.5 56t-25 80.5h109q0 -30 23 -53.5t68 -23.5t68.5 22t23.5 55h109q0 -45 -25 -80.5t-70.5 -56t-105.5 -20.5z" />
    <glyph glyph-name="uni041A" unicode="&#x41a;" horiz-adv-x="709" 
d="M71 0v710h163v-275h56l198 275h182l-254 -343l276 -367h-199l-208 286h-51v-286h-163z" />
    <glyph glyph-name="uni041B" unicode="&#x41b;" horiz-adv-x="742" 
d="M510 0v566h-176l-4 -109q-5 -138 -23.5 -228t-54.5 -141t-91.5 -72.5t-132.5 -21.5v142q35 0 61 14.5t43.5 53.5t28 111.5t14.5 189.5l7 205h492v-710h-164z" />
    <glyph glyph-name="uni041C" unicode="&#x41c;" horiz-adv-x="860" 
d="M628 0v423l-153 -308h-90l-153 308v-423h-164v710h178l184 -371l185 371h177v-710h-164z" />
    <glyph glyph-name="uni041D" unicode="&#x41d;" horiz-adv-x="747" 
d="M679 710v-710h-164v291h-283v-291h-164v710h164v-275h283v275h164z" />
    <glyph glyph-name="uni041E" unicode="&#x41e;" horiz-adv-x="760" 
d="M379 -6q-80 0 -144.5 30.5t-111 82t-71.5 116t-25 133.5q0 71 26.5 135t74 114.5t112.5 79.5t142 29q79 0 143.5 -30.5t111 -82.5t71.5 -116.5t25 -131.5q0 -71 -26 -135t-74 -114.5t-112.5 -80t-141.5 -29.5zM194 354q0 -41 12 -79.5t35.5 -68.5t58.5 -48t80 -18
q47 0 82 18.5t58 49.5t34.5 69.5t11.5 78.5q0 41 -12 79t-36 68.5t-59 47.5t-79 17q-47 0 -81.5 -18t-58 -48.5t-35 -69t-11.5 -78.5z" />
    <glyph glyph-name="uni041F" unicode="&#x41f;" horiz-adv-x="733" 
d="M71 0v710h591v-710h-164v566h-263v-566h-164z" />
    <glyph glyph-name="uni0420" unicode="&#x420;" horiz-adv-x="623" 
d="M68 0v710h303q51 0 93.5 -20.5t73.5 -55t48 -77.5t17 -88q0 -61 -28.5 -116t-79 -89.5t-119.5 -34.5h-144v-229h-164zM232 372h134q19 0 35 11t26 33t10 54q0 33 -11.5 54.5t-29 31.5t-36.5 10h-128v-194z" />
    <glyph glyph-name="uni0421" unicode="&#x421;" horiz-adv-x="688" 
d="M27 361q0 65 24 127.5t70 113.5t112 81.5t150 30.5q100 0 173.5 -43t109.5 -112l-126 -88q-16 38 -42.5 59t-58 29.5t-60.5 8.5q-47 0 -82 -18.5t-58 -49.5t-34 -69t-11 -76q0 -42 13 -81t37.5 -69t59.5 -47.5t77 -17.5q30 0 61 10t57.5 31.5t40.5 56.5l134 -79
q-21 -52 -69 -89t-108.5 -56.5t-119.5 -19.5q-77 0 -141.5 31.5t-111 84t-72 118t-25.5 133.5z" />
    <glyph glyph-name="uni0422" unicode="&#x422;" horiz-adv-x="621" 
d="M609 566h-216v-566h-164v566h-217v144h597v-144z" />
    <glyph glyph-name="uni0423" unicode="&#x423;" horiz-adv-x="648" 
d="M132 -6v135h63q26 0 40 10.5t22 33.5l9 24l-273 513h181l165 -347l146 347h173l-277 -614q-29 -57 -66.5 -79.5t-99.5 -22.5h-83z" />
    <glyph glyph-name="uni0424" unicode="&#x424;" horiz-adv-x="833" 
d="M339 0v64q-62 3 -118.5 26.5t-100 64.5t-68.5 97t-25 125q0 72 26.5 129t70.5 97t99.5 62.5t115.5 25.5v56h155v-56q60 -3 116 -26t100 -63t70 -97t26 -128q0 -69 -25.5 -125.5t-69.5 -97t-100 -64t-117 -26.5v-64h-155zM343 195v365q-41 -3 -75.5 -25.5t-55.5 -61.5
t-21 -96q0 -42 12.5 -75t34 -55.5t49 -36t56.5 -15.5zM490 195q40 4 74.5 26t56 61t21.5 95q0 42 -12 74.5t-33 56t-48.5 37t-58.5 15.5v-365z" />
    <glyph glyph-name="uni0425" unicode="&#x425;" horiz-adv-x="651" 
d="M172 710l154 -245l154 245h178l-235 -360l227 -350h-178l-146 235l-146 -235h-179l227 350l-235 360h179z" />
    <glyph glyph-name="uni0426" unicode="&#x426;" horiz-adv-x="767" 
d="M592 -136v136h-524v710h164v-566h243v566h164v-566h97v-280h-144z" />
    <glyph glyph-name="uni0427" unicode="&#x427;" horiz-adv-x="692" 
d="M464 0v265q-6 -2 -24 -9.5t-49.5 -14t-75.5 -6.5q-128 0 -192.5 56.5t-64.5 180.5v238h160v-219q0 -55 29 -82t106 -27q29 0 58.5 6.5t52.5 16.5v305h160v-710h-160z" />
    <glyph glyph-name="uni0428" unicode="&#x428;" horiz-adv-x="1009" 
d="M68 0v710h164v-566h191v566h164v-566h190v566h164v-710h-873z" />
    <glyph glyph-name="uni0429" unicode="&#x429;" horiz-adv-x="1069" 
d="M894 -136v136h-826v710h164v-566h191v566h164v-566h190v566h164v-566h97v-280h-144z" />
    <glyph glyph-name="uni042A" unicode="&#x42a;" horiz-adv-x="745" 
d="M177 0v575h-157v135h321v-245h129q79 0 135 -28t86 -80t30 -123q0 -70 -28.5 -123t-83 -82t-130.5 -29h-302zM341 134h115q34 0 55.5 13t32 36t10.5 51q0 26 -10.5 48t-32 35.5t-56.5 13.5h-114v-197z" />
    <glyph glyph-name="uni042B" unicode="&#x42b;" horiz-adv-x="946" 
d="M68 0v710h164v-245h132q79 0 135 -28t86 -80t30 -123q0 -70 -28.5 -123t-83 -82t-130.5 -29h-305zM232 134h118q34 0 55.5 13t32 36t10.5 51q0 26 -10.5 48t-32 35.5t-56.5 13.5h-117v-197zM714 0v710h164v-710h-164z" />
    <glyph glyph-name="uni042C" unicode="&#x42c;" horiz-adv-x="642" 
d="M71 0v710h164v-245h132q79 0 135 -28t86 -80t30 -123q0 -70 -29 -123t-83 -82t-130 -29h-305zM235 134h117q34 0 56 13t32.5 36t10.5 51q0 26 -10.5 48t-32 35.5t-56.5 13.5h-117v-197z" />
    <glyph glyph-name="uni042D" unicode="&#x42d;" horiz-adv-x="711" 
d="M327 -6q-72 0 -128 20.5t-97 58t-71 85.5l136 80q16 -30 39 -52t54 -34t68 -12q46 0 80.5 16t58.5 45t36 66.5t13 80.5l65 -44h-310v117h307l-63 -42q-2 39 -15 73t-36.5 60t-57.5 41t-78 15q-37 0 -68 -12t-54 -34t-38 -53l-129 91q45 68 114 111t177 43q84 0 150 -30
t111 -80.5t69 -115t24 -135.5q0 -72 -25 -137t-72 -115t-112.5 -78.5t-147.5 -28.5z" />
    <glyph glyph-name="uni042E" unicode="&#x42e;" horiz-adv-x="1015" 
d="M654 -6q-88 0 -156.5 35.5t-112 101.5t-56.5 156h-97v-287h-164v710h164v-280h98q14 91 59 154t114.5 96.5t153.5 33.5q100 0 174 -45t115.5 -126t41.5 -190q0 -117 -43 -197t-118.5 -121t-172.5 -41zM655 140q56 0 92.5 27.5t55 76t18.5 112.5q0 66 -19.5 113.5
t-56.5 73t-91 25.5t-90.5 -26.5t-55 -74.5t-18.5 -113t19 -113t56 -74.5t90 -26.5z" />
    <glyph glyph-name="uni042F" unicode="&#x42f;" horiz-adv-x="690" 
d="M49 0l168 278q-63 24 -98 79t-35 128q0 66 30.5 116.5t84 79.5t123.5 29h300v-710h-164v259h-50h-12.5h-12.5l-149 -259h-185zM343 398h115v173h-113q-25 0 -46.5 -9t-34.5 -27.5t-13 -49.5q0 -30 12 -49.5t33.5 -28.5t46.5 -9z" />
    <glyph glyph-name="uni0430" unicode="&#x430;" horiz-adv-x="586" 
d="M22 157q0 52 29 91t80 61.5t117 22.5q32 0 63 -5.5t54 -15.5v23q0 43 -26 66t-79 23q-44 0 -82.5 -15t-81.5 -43l-48 102q52 34 108.5 51t119.5 17q118 0 183.5 -56.5t65.5 -163.5v-137q0 -24 7.5 -33.5t26.5 -11.5v-133q-20 -4 -37.5 -6t-30.5 -2q-45 0 -68.5 18
t-29.5 49l-3 23q-35 -45 -83.5 -68.5t-101.5 -23.5q-52 0 -93.5 22t-65.5 60t-24 85zM340 137q11 9 18 20t7 21v47q-20 8 -44.5 12.5t-45.5 4.5q-44 0 -73 -19.5t-29 -51.5q0 -18 10 -33t27.5 -24t41.5 -9t48 9t40 23z" />
    <glyph glyph-name="uni0431" unicode="&#x431;" horiz-adv-x="628" 
d="M324 -10q-137 0 -208.5 80.5t-71.5 240.5q0 94 17 159.5t51 109t86 70t122 40.5l226 51l2 -126l-227 -55q-45 -12 -80 -34.5t-56.5 -57.5t-26.5 -87q32 47 84 75t128 28q68 0 121 -30t83 -82.5t30 -121.5q0 -74 -32 -133t-94.5 -93t-153.5 -34zM324 125q53 0 84.5 32
t31.5 85q0 50 -31.5 82.5t-84.5 32.5q-33 0 -59 -14t-41.5 -40t-15.5 -61t14.5 -61.5t40.5 -41t61 -14.5z" />
    <glyph glyph-name="uni0432" unicode="&#x432;" horiz-adv-x="579" 
d="M56 0v525h304q58 0 93.5 -18t51.5 -46.5t16 -62.5q0 -45 -19.5 -77t-61.5 -51q46 -13 75.5 -43.5t29.5 -83.5q0 -52 -24.5 -83.5t-70 -45.5t-109.5 -14h-285zM208 107h128q15 0 27.5 7t19.5 19.5t7 27.5q0 17 -6.5 29t-19 19t-27.5 7h-129v-109zM208 314h112q15 0 27 7
t18 19.5t6 27.5q0 21 -14 35.5t-36 14.5h-113v-104z" />
    <glyph glyph-name="uni0433" unicode="&#x433;" horiz-adv-x="431" 
d="M56 0v525h361v-140h-201v-385h-160z" />
    <glyph glyph-name="uni0434" unicode="&#x434;" horiz-adv-x="656" 
d="M21 -129v268h16q18 0 35 9.5t30 32.5t21.5 65t10.5 107l7 172h414v-386h75v-268h-140v129h-329v-129h-140zM231 139h164v253h-114l-3 -56q-3 -55 -8.5 -94t-15 -63.5t-23.5 -39.5z" />
    <glyph glyph-name="uni0435" unicode="&#x435;" horiz-adv-x="604" 
d="M306 -10q-67 0 -119 21.5t-88.5 58.5t-55.5 85.5t-19 101.5q0 76 33.5 138.5t96.5 101t152 38.5t151.5 -38t95.5 -99.5t33 -133.5q0 -14 -1.5 -27.5t-2.5 -23.5h-388q3 -35 19.5 -59t42.5 -36.5t55 -12.5q36 0 67.5 17t43.5 46l136 -38q-20 -41 -56.5 -72.5t-86 -49.5
t-109.5 -18zM190 311h228q-4 33 -19 57.5t-40 38t-55 13.5q-31 0 -55.5 -13.5t-39.5 -38t-19 -57.5z" />
    <glyph glyph-name="uni0436" unicode="&#x436;" horiz-adv-x="885" 
d="M15 0l180 273l-170 252h178l125 -188h33v188h164v-188h36l123 188h177l-169 -252l181 -273h-181l-131 198h-36v-198h-164v198h-34l-132 -198h-180z" />
    <glyph glyph-name="uni0437" unicode="&#x437;" horiz-adv-x="511" 
d="M257 -9q-90 0 -148 31t-91 85l128 58q16 -22 40 -34.5t62 -12.5q41 0 62 14.5t21 38.5q0 22 -18 35t-55 14h-55v97h56q17 0 29 5.5t18 16t6 23.5q0 21 -16.5 33t-52.5 12q-32 0 -52 -11t-34 -33l-120 64q30 51 85 79t129 28q57 0 103 -16.5t72.5 -50t26.5 -82.5
q0 -33 -16.5 -65t-55.5 -46q49 -14 73.5 -48t24.5 -80q0 -50 -29 -85t-79 -52.5t-114 -17.5z" />
    <glyph glyph-name="uni0438" unicode="&#x438;" horiz-adv-x="620" 
d="M56 0v525h160v-312l203 312h146v-525h-160v303l-202 -303h-147z" />
    <glyph glyph-name="uni0439" unicode="&#x439;" horiz-adv-x="620" 
d="M56 0v525h160v-312l203 312h146v-525h-160v303l-202 -303h-147zM311 568q-80 0 -128 42.5t-48 110.5h94q0 -31 20.5 -51.5t61.5 -20.5q40 0 59 19.5t23 52.5h95q0 -68 -48.5 -110.5t-128.5 -42.5z" />
    <glyph glyph-name="uni043A" unicode="&#x43a;" horiz-adv-x="599" 
d="M56 0v525h159v-188h38l130 188h172l-180 -252l199 -273h-183l-141 198h-35v-198h-159z" />
    <glyph glyph-name="uni043B" unicode="&#x43b;" horiz-adv-x="605" 
d="M21 -8v142q24 0 42 10t31.5 33t21.5 66t11 110l7 172h415v-525h-160v385h-113l-2 -49q-5 -100 -21.5 -166.5t-47.5 -105t-76 -55.5t-108 -17z" />
    <glyph glyph-name="uni043C" unicode="&#x43c;" horiz-adv-x="741" 
d="M56 0v525h167l148 -281l148 281h166v-525h-152v307l-113 -215h-99l-113 215v-307h-152z" />
    <glyph glyph-name="uni043D" unicode="&#x43d;" horiz-adv-x="611" 
d="M56 0v525h160v-190h179v190h160v-525h-160v203h-179v-203h-160z" />
    <glyph glyph-name="uni043E" unicode="&#x43e;" horiz-adv-x="610" 
d="M305 -10q-67 0 -119.5 22t-88.5 60t-54.5 87t-18.5 103q0 55 18.5 104t54.5 87t88.5 60t119.5 22t119 -22t88 -60t55 -87t19 -104q0 -54 -19 -103t-55 -87t-88 -60t-119 -22zM188 262q0 -41 15.5 -72t41.5 -48t60 -17q33 0 59.5 17.5t41.5 48.5t15 71q0 41 -15 72
t-41.5 48t-59.5 17q-34 0 -60 -17t-41.5 -48t-15.5 -72z" />
    <glyph glyph-name="uni043F" unicode="&#x43f;" horiz-adv-x="603" 
d="M56 0v525h491v-525h-160v385h-171v-385h-160z" />
    <glyph glyph-name="uni0440" unicode="&#x440;" horiz-adv-x="640" 
d="M387 -10q-59 0 -103 25.5t-69 69.5v-298h-160v738h139v-85q29 45 73 70t103 25q53 0 97.5 -21t77.5 -58t51 -86t18 -106q0 -78 -29 -140t-80.5 -98t-117.5 -36zM333 125q26 0 47.5 11.5t37.5 30.5t24.5 44.5t8.5 53.5q0 29 -9.5 53t-26.5 42.5t-40 28.5t-50 10
q-16 0 -32.5 -5t-31 -14.5t-26.5 -22.5t-20 -30v-108q11 -27 29 -48t41 -33.5t48 -12.5z" />
    <glyph glyph-name="uni0441" unicode="&#x441;" horiz-adv-x="570" 
d="M306 -10q-67 0 -119 22t-88.5 60t-55.5 87t-19 104q0 72 33.5 134t96.5 100t152 38q90 0 152.5 -38.5t93.5 -100.5l-156 -47q-15 24 -38.5 37t-52.5 13q-33 0 -59.5 -17t-42 -47t-15.5 -72q0 -41 16 -72t42 -48.5t59 -17.5q20 0 37.5 6.5t32 18.5t22.5 27l156 -48
q-19 -40 -54.5 -71.5t-83.5 -49.5t-109 -18z" />
    <glyph glyph-name="uni0442" unicode="&#x442;" horiz-adv-x="505" 
d="M173 0v385h-159v140h478v-140h-159v-385h-160z" />
    <glyph glyph-name="uni0443" unicode="&#x443;" horiz-adv-x="552" 
d="M140 -230q-22 0 -46.5 5t-57.5 15l23 132q19 -7 35.5 -11t29.5 -4q26 0 44 15.5t27 47.5l9 31l-202 524h165l122 -361l104 361h151l-197 -594q-16 -50 -47 -85.5t-72 -55.5t-88 -20z" />
    <glyph glyph-name="uni0444" unicode="&#x444;" horiz-adv-x="763" 
d="M301 -213v213h-13q-84 0 -143 36.5t-90 96.5t-31 129q0 70 31 130t90 96.5t143 36.5h13v205h160v-205h14q84 0 143.5 -36.5t90 -96.5t30.5 -130q0 -69 -30.5 -129t-90 -96.5t-143.5 -36.5h-14v-213h-160zM288 127h22v270h-22q-31 0 -55.5 -17t-38.5 -47.5t-14 -70.5
t14 -70.5t38.5 -47.5t55.5 -17zM453 127h22q31 0 56 17t38.5 47.5t13.5 70.5t-14 70.5t-38.5 47.5t-55.5 17h-22v-270z" />
    <glyph glyph-name="uni0445" unicode="&#x445;" horiz-adv-x="542" 
d="M168 525l93 -148l10 -19l10 19l93 148h165l-176 -261l180 -264h-165l-98 147l-9 19l-9 -19l-98 -147h-165l180 261l-176 264h165z" />
    <glyph glyph-name="uni0446" unicode="&#x446;" horiz-adv-x="628" 
d="M462 -129v129h-406v525h160v-386h151v386h160v-386h75v-268h-140z" />
    <glyph glyph-name="uni0447" unicode="&#x447;" horiz-adv-x="562" 
d="M345 0v177q-29 -13 -58 -18.5t-68 -5.5q-81 0 -129.5 44.5t-48.5 129.5v198h160v-177q0 -37 17 -55.5t53 -18.5q19 0 38.5 3.5t35.5 11.5v236h160v-525h-160z" />
    <glyph glyph-name="uni0448" unicode="&#x448;" horiz-adv-x="882" 
d="M56 0v525h160v-386h145v386h160v-386h145v386h160v-525h-770z" />
    <glyph glyph-name="uni0449" unicode="&#x449;" horiz-adv-x="927" 
d="M761 -129v129h-705v525h160v-386h145v386h160v-386h145v386h160v-386h75v-268h-140z" />
    <glyph glyph-name="uni044A" unicode="&#x44a;" horiz-adv-x="630" 
d="M144 0v397h-125v128h278v-157h114q95 0 146.5 -49.5t51.5 -129.5q0 -56 -21.5 -99t-63.5 -66.5t-103 -23.5h-277zM297 121h98q22 0 36 8.5t21.5 24t7.5 34.5t-7 33.5t-21.5 23.5t-37.5 9h-97v-133z" />
    <glyph glyph-name="uni044B" unicode="&#x44b;" horiz-adv-x="794" 
d="M56 0v525h160v-157h85q95 0 146.5 -49.5t51.5 -129.5q0 -56 -21.5 -99t-63.5 -66.5t-103 -23.5h-255zM216 121h69q22 0 36.5 8.5t21.5 24t7 34.5t-7 33.5t-21.5 23.5t-37.5 9h-68v-133zM578 0v525h160v-525h-160z" />
    <glyph glyph-name="uni044C" unicode="&#x44c;" horiz-adv-x="549" 
d="M56 0v525h160v-157h113q95 0 146.5 -49.5t51.5 -129.5q0 -56 -21.5 -99t-63 -66.5t-103.5 -23.5h-283zM216 121h97q22 0 36.5 8.5t21.5 24t7 34.5t-6.5 33.5t-21 23.5t-38.5 9h-96v-133z" />
    <glyph glyph-name="uni044D" unicode="&#x44d;" horiz-adv-x="585" 
d="M280 -10q-55 0 -102.5 16t-83.5 45.5t-59 70.5l127 59q19 -31 45.5 -47.5t64.5 -16.5q31 0 56 12t43 34t25 50h-161v102h160q-8 27 -25 47.5t-42 32.5t-56 12q-38 0 -64.5 -14t-45.5 -46l-120 64q33 58 94 91t144 33q69 0 121 -22.5t88 -60.5t54 -87t18 -102t-18.5 -102
t-54.5 -87.5t-88 -61t-120 -22.5z" />
    <glyph glyph-name="uni044E" unicode="&#x44e;" horiz-adv-x="845" 
d="M549 -10q-72 0 -125.5 26.5t-87.5 72.5t-48 103h-73v-192h-160v525h160v-194h73q13 59 47.5 105t88.5 72.5t125 26.5q88 0 148 -38t92 -99.5t32 -135.5t-32 -135.5t-92.5 -99t-147.5 -37.5zM549 125q32 0 56 17t37.5 48t13.5 72q0 42 -13.5 73t-38 47.5t-55.5 16.5
q-30 0 -54 -16.5t-37.5 -47.5t-13.5 -73t13.5 -73t37.5 -47.5t54 -16.5z" />
    <glyph glyph-name="uni044F" unicode="&#x44f;" horiz-adv-x="580" 
d="M34 0l124 201q-45 15 -70 52.5t-25 97.5q0 54 24.5 93.5t68 61t99.5 21.5h269v-527h-160v173h-53l-102 -173h-175zM277 286h87v120h-85q-30 0 -46.5 -16.5t-16.5 -42.5q0 -27 15.5 -44t45.5 -17z" />
    <glyph glyph-name="uni0450" unicode="&#x450;" horiz-adv-x="604" 
d="M306 -10q-67 0 -119 21.5t-88.5 58.5t-55.5 85.5t-19 101.5q0 76 33.5 138.5t96.5 101t152 38.5t151.5 -38t95.5 -99.5t33 -133.5q0 -14 -1.5 -27.5t-2.5 -23.5h-388q3 -35 19.5 -59t42.5 -36.5t55 -12.5q36 0 67.5 17t43.5 46l136 -38q-20 -41 -56.5 -72.5t-86 -49.5
t-109.5 -18zM190 311h228q-4 33 -19 57.5t-40 38t-55 13.5q-31 0 -55.5 -13.5t-39.5 -38t-19 -57.5zM163 731h145l52 -130l-101 -28z" />
    <glyph glyph-name="uni0451" unicode="&#x451;" horiz-adv-x="604" 
d="M306 -10q-67 0 -119 21.5t-88.5 58.5t-55.5 85.5t-19 101.5q0 76 33.5 138.5t96.5 101t152 38.5t151.5 -38t95.5 -99.5t33 -133.5q0 -14 -1.5 -27.5t-2.5 -23.5h-388q3 -35 19.5 -59t42.5 -36.5t55 -12.5q36 0 67.5 17t43.5 46l136 -38q-20 -41 -56.5 -72.5t-86 -49.5
t-109.5 -18zM190 311h228q-4 33 -19 57.5t-40 38t-55 13.5q-31 0 -55.5 -13.5t-39.5 -38t-19 -57.5zM134 594v129h132v-129h-132zM344 594v129h132v-129h-132z" />
    <glyph glyph-name="uni0452" unicode="&#x452;" horiz-adv-x="640" 
d="M358 -213q-40 0 -70 10.5t-50.5 24.5t-31.5 25l-13 13l108 80q4 -2 15.5 -12.5t32.5 -10.5q23 0 40.5 9.5t29.5 34t18.5 66.5t6.5 107q0 70 -11 109t-35.5 55.5t-64.5 16.5q-35 0 -59.5 -21t-36.5 -58v-236h-160v530h-79v94h79v106h160v-106h211v-94h-211v-151
q28 35 66.5 55.5t87.5 20.5q72 0 119 -30t70.5 -99t23.5 -187q0 -75 -12.5 -139.5t-41.5 -112t-76 -74t-116 -26.5z" />
    <glyph glyph-name="uni0453" unicode="&#x453;" horiz-adv-x="431" 
d="M56 0v525h361v-140h-201v-385h-160zM332 572l-102 28l52 130h145z" />
    <glyph glyph-name="uni0454" unicode="&#x454;" horiz-adv-x="585" 
d="M305 -10q-67 0 -119.5 22.5t-88.5 61t-54.5 87.5t-18.5 102t18 102t54 87t88.5 60.5t121.5 22.5q82 0 143.5 -33t93.5 -91l-120 -64q-18 32 -45 46t-65 14q-31 0 -56 -12t-42 -32.5t-25 -47.5h161v-102h-162q8 -28 25.5 -50t43 -34t56.5 -12q37 0 63.5 16.5t45.5 47.5
l127 -59q-33 -61 -97 -96.5t-148 -35.5z" />
    <glyph glyph-name="uni0455" unicode="&#x455;" horiz-adv-x="497" 
d="M256 -10q-67 0 -131 22t-108 65l55 101q48 -35 93.5 -53t85.5 -18q31 0 48 10t17 31q0 15 -10 23.5t-30.5 15.5t-50.5 15q-60 20 -100 39t-60 46.5t-20 71.5q0 53 26.5 92.5t75.5 61.5t117 22q54 0 105.5 -17t96.5 -57l-62 -100q-45 31 -80 45t-68 14q-17 0 -31 -4
t-22.5 -13.5t-8.5 -24.5t8.5 -24t27 -15.5t46.5 -15.5q65 -19 108 -38.5t64.5 -48t21.5 -75.5q0 -80 -57.5 -125.5t-156.5 -45.5z" />
    <glyph glyph-name="uni0456" unicode="&#x456;" horiz-adv-x="270" 
d="M55 0v525h160v-525h-160zM55 585v145h160v-145h-160z" />
    <glyph glyph-name="uni0457" unicode="&#x457;" horiz-adv-x="270" 
d="M55 0v525h160v-525h-160zM-36 594v129h132v-129h-132zM174 594v129h132v-129h-132z" />
    <glyph glyph-name="uni0458" unicode="&#x458;" horiz-adv-x="274" 
d="M27 -202q-39 0 -75.5 12.5t-65.5 37.5l67 109q10 -11 24.5 -16t29.5 -5t27 6.5t19 19.5t7 29v534h160v-522q0 -60 -25.5 -106.5t-69 -72.5t-98.5 -26zM60 585v145h160v-145h-160z" />
    <glyph glyph-name="uni0459" unicode="&#x459;" horiz-adv-x="854" 
d="M21 -8v142q24 0 42 10t31.5 33t21.5 66t11 110l7 172h408v-166h92q96 0 147 -47.5t51 -127.5q0 -54 -21.5 -95.5t-63 -65t-103.5 -23.5h-262v385h-106l-2 -49q-5 -100 -21.5 -166.5t-47.5 -105t-76 -55.5t-108 -17zM542 121h76q22 0 36.5 8t21.5 22.5t7 32.5t-6.5 31.5
t-21 21.5t-37.5 8h-76v-124z" />
    <glyph glyph-name="uni045A" unicode="&#x45a;" horiz-adv-x="871" 
d="M56 0v525h160v-188h185v188h156v-166h94q96 0 147.5 -47.5t51.5 -127.5q0 -54 -21.5 -95.5t-63.5 -65t-103 -23.5h-261v198h-185v-198h-160zM557 121h78q22 0 36.5 8t21.5 22.5t7 32.5t-6.5 31.5t-21 21.5t-37.5 8h-78v-124z" />
    <glyph glyph-name="uni045B" unicode="&#x45b;" horiz-adv-x="628" 
d="M63 0v541h-79v93h79v96h160v-96h211v-93h-211v-145q28 36 69.5 56.5t94.5 20.5q99 0 141 -50t42 -143v-280h-160v238q0 47 -21 70.5t-63 23.5q-38 0 -64 -20.5t-39 -57.5v-254h-160z" />
    <glyph glyph-name="uni045C" unicode="&#x45c;" horiz-adv-x="599" 
d="M56 0v525h159v-188h38l130 188h172l-180 -252l199 -273h-183l-141 198h-35v-198h-159zM346 572l-102 28l52 130h145z" />
    <glyph glyph-name="uni045D" unicode="&#x45d;" horiz-adv-x="620" 
d="M56 0v525h160v-312l203 312h146v-525h-160v303l-202 -303h-147zM175 730h145l52 -130l-101 -28z" />
    <glyph glyph-name="uni045E" unicode="&#x45e;" horiz-adv-x="552" 
d="M140 -230q-22 0 -46.5 5t-57.5 15l23 132q19 -7 35.5 -11t29.5 -4q26 0 44 15.5t27 47.5l9 31l-202 524h165l122 -361l104 361h151l-197 -594q-16 -50 -47 -85.5t-72 -55.5t-88 -20zM276 568q-80 0 -128 42.5t-48 110.5h94q0 -31 20.5 -51.5t61.5 -20.5q40 0 59 19.5
t23 52.5h95q0 -68 -48.5 -110.5t-128.5 -42.5z" />
    <glyph glyph-name="uni045F" unicode="&#x45f;" horiz-adv-x="602" 
d="M233 -129v129h-177v525h160v-386h170v386h160v-525h-178v-129h-135z" />
    <glyph glyph-name="uni0462" unicode="&#x462;" horiz-adv-x="685" 
d="M10 554v93h426v-93h-426zM114 0v731h164v-266h132q79 0 135 -28t86 -80t30 -123q0 -70 -29 -123t-83 -82t-130 -29h-305zM278 134h117q34 0 56 13t32 36t10 51q0 26 -10 48t-32 35.5t-56 13.5h-117v-197z" />
    <glyph glyph-name="uni0463" unicode="&#x463;" horiz-adv-x="579" 
d="M86 0v495h-109v97h109v138h160v-138h161v-97h-161v-127h114q95 0 146.5 -49.5t51.5 -129.5q0 -56 -21.5 -99t-63.5 -66.5t-103 -23.5h-284zM246 121h98q22 0 36.5 8.5t21.5 24t7 34.5t-7 33.5t-21.5 23.5t-37.5 9h-97v-133z" />
    <glyph glyph-name="uni046A" unicode="&#x46a;" horiz-adv-x="1095" 
d="M17 0l273 360l-252 350h1018l-252 -350l273 -360h-183l-216 278h-49v-278h-164v278h-48l-217 -278h-183zM420 427h255l130 186h-516z" />
    <glyph glyph-name="uni046B" unicode="&#x46b;" horiz-adv-x="917" 
d="M15 0l204 273l-186 252h852l-186 -252l205 -273h-192l-145 198h-26v-198h-163v198h-26l-144 -198h-193zM365 320h190l90 125h-371z" />
    <glyph glyph-name="uni0472" unicode="&#x472;" horiz-adv-x="764" 
d="M126 315v90h506v-90h-506zM379 -6q-80 0 -144.5 30.5t-111 82t-71.5 116t-25 133.5q0 71 26.5 135t74 114.5t112.5 79.5t142 29q79 0 143.5 -30.5t110.5 -82.5t71.5 -116.5t25.5 -131.5q0 -71 -26.5 -135t-74 -114.5t-112 -80t-141.5 -29.5zM194 354q0 -41 12 -79.5
t35.5 -68.5t58.5 -48t80 -18q47 0 82 18.5t58 49.5t34.5 69.5t11.5 78.5q0 41 -12 79t-36 68.5t-59 47.5t-79 17q-47 0 -81.5 -18t-58 -48.5t-35 -69t-11.5 -78.5z" />
    <glyph glyph-name="uni0473" unicode="&#x473;" horiz-adv-x="609" 
d="M125 232v65h397v-65h-397zM305 -10q-67 0 -119.5 22t-88.5 60t-54.5 87t-18.5 103q0 55 18.5 104t54.5 87t88.5 60t119.5 22t119 -22t88 -60t55 -87t19 -104q0 -54 -19 -103t-55 -87t-88 -60t-119 -22zM188 262q0 -41 15.5 -72t41.5 -48t60 -17q33 0 59.5 17.5t41.5 48.5
t15 71q0 41 -15 72t-41.5 48t-59.5 17q-34 0 -60 -17t-41.5 -48t-15.5 -72z" />
    <glyph glyph-name="uni0474" unicode="&#x474;" horiz-adv-x="722" 
d="M269 0l-272 710h174l167 -496l125 361q22 70 62 102.5t117 32.5h68v-135h-44q-29 0 -45 -12.5t-27 -41.5l-200 -521h-125z" />
    <glyph glyph-name="uni0475" unicode="&#x475;" horiz-adv-x="593" 
d="M191 0l-186 525h160l115 -389l81 265q18 65 55.5 94.5t107.5 29.5h64v-122h-39q-27 0 -41 -11t-24 -39l-133 -353h-160z" />
    <glyph glyph-name="uni048A" unicode="&#x48a;" horiz-adv-x="814" 
d="M85 0v710h164v-477l306 477h153v-710h-164v474l-302 -474h-157zM397 748q-59 0 -104.5 20.5t-70.5 56t-25 80.5h109q0 -30 23 -53.5t68 -23.5t68.5 22t23.5 55h109q0 -45 -25 -80.5t-70.5 -56t-105.5 -20.5zM583 -135l47 207l86 -72h-172v144h244l-62 -279h-143z" />
    <glyph glyph-name="uni048B" unicode="&#x48b;" horiz-adv-x="677" 
d="M68 0v525h160v-312l203 312h146v-525h-160v303l-202 -303h-147zM323 568q-80 0 -128 42.5t-48 110.5h94q0 -31 20.5 -51.5t61.5 -20.5q40 0 59 19.5t23 52.5h95q0 -68 -48.5 -110.5t-128.5 -42.5zM456 -135l47 207l86 -72h-172v139h244l-62 -274h-143z" />
    <glyph glyph-name="uni048C" unicode="&#x48c;" horiz-adv-x="690" 
d="M23 540v93h399v-93h-399zM119 0v710h164v-259h132q79 0 135 -27t86 -77.5t30 -119.5q0 -68 -29 -119t-83 -79.5t-130 -28.5h-305zM283 134h117q34 0 56 13t32 36t10 51q0 26 -10 48t-32 35.5t-56 13.5h-117v-197z" />
    <glyph glyph-name="uni048D" unicode="&#x48d;" horiz-adv-x="604" 
d="M111 0v730h155v-369h118q96 0 147.5 -47t51.5 -125q0 -56 -22 -99t-63.5 -66.5t-102.5 -23.5h-284zM266 118h102q23 0 37 8.5t21.5 23.5t7.5 35q0 19 -7 33.5t-21.5 23t-37.5 8.5h-102v-132zM21 425v100h411v-100h-411z" />
    <glyph glyph-name="uni048E" unicode="&#x48e;" horiz-adv-x="652" 
d="M83 0v710h303q54 0 98.5 -19t78 -51.5t51.5 -76.5t18 -93q0 -69 -30 -123.5t-84 -86t-127 -31.5h-144v-229h-164zM247 359h134q25 0 46.5 11t35 34t13.5 59t-15 59t-38 33.5t-48 10.5h-128v-207zM340 423l64 49l201 -257l-63 -49z" />
    <glyph glyph-name="uni048F" unicode="&#x48f;" horiz-adv-x="642" 
d="M400 -10q-60 0 -104 25.5t-69 69.5v-298h-160v738h139v-85q29 45 73 70t103 25q54 0 96.5 -21t73.5 -58t48 -86t17 -106q0 -58 -17.5 -108t-48 -87t-69.5 -58t-82 -21zM352 111q26 0 47.5 11t37 30.5t24.5 46.5t9 58q0 35 -9 61.5t-26.5 44.5t-40.5 27t-50 9
q-18 0 -35 -5t-32.5 -14.5t-28 -22.5t-21.5 -30v-108q11 -30 29.5 -54.5t43 -39t52.5 -14.5zM344 193l54 49l210 -235l-54 -48z" />
    <glyph glyph-name="uni0490" unicode="&#x490;" horiz-adv-x="543" 
d="M70 0v710h306v160h142v-304h-284v-566h-164z" />
    <glyph glyph-name="uni0491" unicode="&#x491;" horiz-adv-x="431" 
d="M56 0v525h220v129h141v-269h-201v-385h-160z" />
    <glyph glyph-name="uni0492" unicode="&#x492;" horiz-adv-x="573" 
d="M7 278v104h420v-104h-420zM100 0v710h448v-144h-284v-566h-164z" />
    <glyph glyph-name="uni0493" unicode="&#x493;" horiz-adv-x="470" 
d="M21 195v87h362v-87h-362zM94 0v525h362v-140h-202v-385h-160z" />
    <glyph glyph-name="uni0494" unicode="&#x494;" horiz-adv-x="712" 
d="M418 -142q-63 0 -122 19l42 133q14 -7 31 -11.5t34 -4.5q41 0 72.5 29.5t31.5 99.5q0 59 -28.5 95t-99.5 36q-43 0 -75.5 -13t-72.5 -39v142q37 23 82 34.5t94 11.5q127 0 193.5 -72t66.5 -195q0 -127 -66.5 -196t-182.5 -69zM68 0v710h448v-144h-284v-566h-164z" />
    <glyph glyph-name="uni0495" unicode="&#x495;" horiz-adv-x="576" 
d="M341 -198q-35 0 -67.5 8.5t-57.5 25.5l46 101q14 -7 28 -10t26 -3q47 0 66 33.5t19 87.5q0 43 -12.5 69t-34.5 38t-51 12q-24 0 -47.5 -6t-50.5 -18v102q37 20 72.5 29.5t72.5 9.5q57 0 103.5 -26.5t74.5 -76.5t28 -123t-25 -130.5t-72.5 -90t-117.5 -32.5zM56 0v525h361
v-140h-201v-385h-160z" />
    <glyph glyph-name="uni0496" unicode="&#x496;" horiz-adv-x="1113" 
d="M956 -136v136h-63v144h203v-280h-140zM17 0l273 368l-252 342h191l195 -275h46v275h164v-275h46l195 275h191l-252 -342l273 -368h-188l-217 286h-48v-286h-164v286h-48l-217 -286h-188z" />
    <glyph glyph-name="uni0497" unicode="&#x497;" horiz-adv-x="909" 
d="M763 -129v129h-67v125h196v-254h-129zM15 0l180 273l-170 252h178l125 -188h33v188h164v-188h36l123 188h177l-169 -252l181 -273h-181l-131 198h-36v-198h-164v198h-34l-132 -198h-180z" />
    <glyph glyph-name="uni0498" unicode="&#x498;" horiz-adv-x="629" 
d="M253 -137v251l135 2v-253h-135zM317 -7q-92 0 -165.5 37t-116.5 103l123 76q24 -37 63.5 -58.5t91.5 -21.5q59 0 86 24t27 61q0 25 -11.5 44t-36 29.5t-62.5 10.5h-91v123h92q31 0 51 9.5t29.5 26t9.5 38.5t-10.5 38.5t-32.5 26t-57 9.5q-56 0 -95 -21t-59 -54l-119 84
q45 62 111.5 99.5t168.5 37.5q79 0 135 -22t86.5 -65.5t30.5 -107.5q0 -46 -22.5 -88.5t-74.5 -66.5q59 -17 91 -62t32 -105q0 -67 -36 -112.5t-98 -69t-141 -23.5z" />
    <glyph glyph-name="uni0499" unicode="&#x499;" horiz-adv-x="511" 
d="M257 -9q-90 0 -148 31t-91 85l128 58q16 -22 40 -34.5t62 -12.5q41 0 62 14.5t21 38.5q0 22 -18 35t-55 14h-55v97h56q17 0 29 5.5t18 16t6 23.5q0 21 -16.5 33t-52.5 12q-32 0 -52 -11t-34 -33l-120 64q30 51 85 79t129 28q57 0 103 -16.5t72.5 -50t26.5 -82.5
q0 -33 -16.5 -65t-55.5 -46q49 -14 73.5 -48t24.5 -80q0 -50 -29 -85t-79 -52.5t-114 -17.5zM236 -210q-28 0 -59.5 8t-62.5 24l38 83q14 -10 28 -15t29 -5q21 0 34.5 11t13.5 31t-12.5 37.5t-36.5 35.5l52 32q39 -27 65.5 -59t26.5 -77q0 -43 -29 -74.5t-87 -31.5z" />
    <glyph glyph-name="uni049A" unicode="&#x49a;" horiz-adv-x="715" 
d="M561 -136v136h-58v144h195v-280h-137zM71 0v710h163v-275h56l198 275h182l-254 -343l276 -367h-199l-208 286h-51v-286h-163z" />
    <glyph glyph-name="uni049B" unicode="&#x49b;" horiz-adv-x="598" 
d="M452 -129v129h-53v125h181v-254h-128zM56 0v525h159v-188h38l130 188h172l-180 -252l199 -273h-183l-141 198h-35v-198h-159z" />
    <glyph glyph-name="uni049C" unicode="&#x49c;" horiz-adv-x="707" 
d="M68 0v710h163v-283h151l149 283h169l-181 -343l202 -367h-179l-158 295h-153v-295h-163zM366 184h-67v346h67v-346z" />
    <glyph glyph-name="uni049D" unicode="&#x49d;" horiz-adv-x="660" 
d="M55 0v525h159v-191h129l106 191h169l-143 -252l159 -273h-174l-117 200h-129v-200h-159zM318 117h-60v298h60v-298z" />
    <glyph glyph-name="uni049E" unicode="&#x49e;" horiz-adv-x="764" 
d="M29 540v93h316v-93h-316zM98 0v710h157v-275h95l198 275h177l-254 -343l276 -367h-195l-207 286h-90v-286h-157z" />
    <glyph glyph-name="uni049F" unicode="&#x49f;" horiz-adv-x="589" 
d="M67 0v730h159v-393h39l129 188h172l-180 -252l199 -273h-183l-141 198h-35v-198h-159zM4 561v93h346v-93h-346z" />
    <glyph glyph-name="uni04A0" unicode="&#x4a0;" horiz-adv-x="764" 
d="M8 575v135h150v-135h-150zM158 0v710h164v-275h56l198 275h181l-254 -343l276 -367h-199l-207 286h-51v-286h-164z" />
    <glyph glyph-name="uni04A1" unicode="&#x4a1;" horiz-adv-x="643" 
d="M8 395v130h126v-130h-126zM134 0v525h159v-188h38l130 188h172l-180 -252l199 -273h-183l-141 198h-35v-198h-159z" />
    <glyph glyph-name="uni04A2" unicode="&#x4a2;" horiz-adv-x="850" 
d="M679 710v-710h-164v291h-283v-291h-164v710h164v-275h283v275h164zM679 -136v136h-114v144h254v-280h-140z" />
    <glyph glyph-name="uni04A3" unicode="&#x4a3;" horiz-adv-x="664" 
d="M56 0v525h160v-190h179v190h160v-525h-160v203h-179v-203h-160zM495 -129v129h-100v139h243v-268h-143z" />
    <glyph glyph-name="uni04A4" unicode="&#x4a4;" horiz-adv-x="988" 
d="M679 566l-164 144h448v-144h-284zM679 710v-710h-164v291h-283v-291h-164v710h164v-275h283v275h164z" />
    <glyph glyph-name="uni04A5" unicode="&#x4a5;" horiz-adv-x="770" 
d="M554 385l-160 140h362v-140h-202zM56 0v525h160v-190h179v190h160v-525h-160v203h-179v-203h-160z" />
    <glyph glyph-name="uni04A6" unicode="&#x4a6;" horiz-adv-x="1127" 
d="M68 0v710h578v-710h-164v566h-250v-566h-164zM832 -142q-62 0 -122 19l33 123q18 -5 34.5 -8t31.5 -3q55 0 85 37.5t30 111.5q0 77 -37.5 115.5t-99.5 38.5q-34 0 -69.5 -11t-71.5 -33v125q37 22 82 33.5t93 11.5q86 0 143.5 -35.5t87.5 -97t30 -141.5q0 -142 -66.5 -214
t-183.5 -72z" />
    <glyph glyph-name="uni04A7" unicode="&#x4a7;" horiz-adv-x="917" 
d="M682 -198q-35 0 -67 8.5t-57 25.5l45 101q15 -7 29 -10t26 -3q47 0 66 39t19 102q0 51 -13 81.5t-34.5 44.5t-51.5 14q-22 0 -46.5 -7t-50.5 -21v-177h-160v385h-171v-385h-160v525h491v-246q37 22 73.5 32.5t71.5 10.5q56 0 103 -27t74.5 -78.5t27.5 -127.5
q0 -82 -24.5 -147t-72.5 -102.5t-118 -37.5z" />
    <glyph glyph-name="uni04A8" unicode="&#x4a8;" horiz-adv-x="1118" 
d="M1091 79q-48 -43 -111 -64.5t-133 -21.5q-60 0 -118.5 14t-104.5 41q-46 -26 -97 -40.5t-123 -14.5q-77 0 -143.5 25.5t-117 74t-78.5 117t-28 154.5q0 73 24 140t68 118t107 79t140 24l-32 -142q-41 1 -73.5 -27t-50.5 -77t-18 -111q0 -72 26 -126t73.5 -83t109.5 -29
q18 0 35 2.5t34 8.5q-32 29 -56 68t-36.5 85.5t-12.5 97.5q0 94 40 166t111.5 113.5t165.5 41.5q72 0 130.5 -25t99.5 -68t63 -98.5t22 -117.5q0 -63 -22 -118.5t-67 -98t-113 -67.5q14 -2 27 -3.5t26 -1.5q55 0 101 20t83 57zM625 494q-27 -22 -40.5 -51t-12 -63.5
t18.5 -73.5q21 -26 48 -42t54.5 -18.5t48.5 7.5q37 40 50.5 75.5t9.5 68.5t-21 67q-21 35 -47.5 48t-54.5 8t-54 -26z" />
    <glyph glyph-name="uni04A9" unicode="&#x4a9;" horiz-adv-x="896" 
d="M878 40q-33 -24 -79.5 -36.5t-94.5 -12.5q-46 0 -90.5 11t-79.5 34q-40 -22 -87.5 -33.5t-103.5 -11.5q-87 -1 -154.5 33t-106 96.5t-38.5 147.5q0 54 20.5 103.5t59 87.5t92.5 59t120 17l-24 -117q-33 -4 -56 -25t-36 -52t-13 -65q0 -44 18.5 -83.5t54 -64t86.5 -24.5
q10 0 19.5 1.5t19.5 2.5q-39 33 -60.5 79.5t-21.5 101.5q0 68 32.5 121t90.5 83.5t134 30.5q75 0 132 -28.5t88.5 -78.5t31.5 -116q0 -65 -34.5 -121t-103.5 -90h7.5h7.5q40 0 75.5 11.5t67.5 29.5zM579 399q-35 0 -61 -14.5t-40.5 -41.5t-14.5 -65q0 -30 11 -58.5
t31.5 -52.5t49.5 -38q43 12 73.5 33t47 50.5t16.5 67.5q0 40 -15 67t-40.5 39.5t-57.5 12.5z" />
    <glyph glyph-name="uni04AA" unicode="&#x4aa;" horiz-adv-x="688" 
d="M312 -137v138q-64 13 -116.5 47.5t-90 84t-58 108.5t-20.5 120q0 65 24 127.5t70 113.5t112 81.5t150 30.5q100 0 173.5 -43t109.5 -112l-126 -88q-16 38 -42.5 59t-58 29.5t-60.5 8.5q-47 0 -82 -18.5t-58 -49.5t-34 -69t-11 -76q0 -42 13 -81t37.5 -69t59.5 -47.5
t77 -17.5q30 0 61 10t57.5 31.5t40.5 56.5l134 -79q-16 -42 -51 -74.5t-80.5 -53.5t-94.5 -30v-138h-136z" />
    <glyph glyph-name="uni04AB" unicode="&#x4ab;" horiz-adv-x="570" 
d="M234 -129v127q-66 15 -113 54t-72 94t-25 117q0 72 33.5 134t96.5 100t152 38q90 0 152.5 -38.5t93.5 -100.5l-156 -47q-15 24 -38.5 37t-52.5 13q-33 0 -59.5 -17t-42 -47t-15.5 -72q0 -41 16 -72t42 -48.5t59 -17.5q20 0 37.5 6.5t32 18.5t22.5 27l156 -48
q-16 -33 -42 -60.5t-61.5 -46t-80.5 -26.5v-125h-135z" />
    <glyph glyph-name="uni04AC" unicode="&#x4ac;" horiz-adv-x="621" 
d="M609 566h-216v-566h-164v566h-217v144h597v-144zM400 -136v136h-114v144h254v-280h-140z" />
    <glyph glyph-name="uni04AD" unicode="&#x4ad;" horiz-adv-x="505" 
d="M173 0v385h-159v140h478v-140h-159v-385h-160zM273 -129v129h-100v139h243v-268h-143z" />
    <glyph glyph-name="Ustraitcy" unicode="&#x4ae;" horiz-adv-x="663" 
d="M178 710l153 -314l155 314h179l-253 -468v-242h-163v244l-249 466h178z" />
    <glyph glyph-name="ustraitcy" unicode="&#x4af;" horiz-adv-x="556" 
d="M198 -213v213l-193 525h165l115 -397l116 397h150l-193 -525v-213h-160z" />
    <glyph glyph-name="Ustraitstrokecy" unicode="&#x4b0;" horiz-adv-x="646" 
d="M240 0v130h-163v103h163v11l-249 466h178l153 -326l155 326h179l-252 -468v-9h164v-103h-164v-130h-164z" />
    <glyph glyph-name="ustraitstrokecy" unicode="&#x4b1;" horiz-adv-x="543" 
d="M202 -213v144h-124v69h124v0l-193 525h159l116 -412l118 412h152l-192 -525v0h117v-69h-117v-144h-160z" />
    <glyph glyph-name="uni04B2" unicode="&#x4b2;" horiz-adv-x="725" 
d="M557 -136v136h-59v144h195v-280h-136zM198 710l154 -245l154 245h178l-235 -360l227 -350h-178l-146 235l-146 -235h-179l228 350l-236 360h179z" />
    <glyph glyph-name="uni04B3" unicode="&#x4b3;" horiz-adv-x="594" 
d="M438 -129v129h-47v125h176v-254h-129zM177 525l94 -148l9 -19l10 19l93 148h165l-176 -261l180 -264h-165l-98 147l-9 19l-8 -19l-98 -147h-165l180 261l-176 264h164z" />
    <glyph glyph-name="uni04B4" unicode="&#x4b4;" horiz-adv-x="915" 
d="M533 566h-143h-164h-214v144h521v-144zM740 -136v136h-514v710h164v-566h233v566h164v-566h97v-280h-144z" />
    <glyph glyph-name="uni04B5" unicode="&#x4b5;" horiz-adv-x="739" 
d="M173 385h-159v140h417v-140h-105h-153zM574 -129v129h-401v525h153v-386h159v386h153v-386h75v-268h-139z" />
    <glyph glyph-name="uni04B6" unicode="&#x4b6;" horiz-adv-x="781" 
d="M464 0v265q-6 -2 -24 -9.5t-49.5 -14t-75.5 -6.5q-128 0 -192.5 56.5t-64.5 180.5v238h160v-219q0 -55 29 -82t106 -27q29 0 58.5 6.5t52.5 16.5v305h160v-710h-160zM610 -136v136h-114v144h254v-280h-140z" />
    <glyph glyph-name="uni04B7" unicode="&#x4b7;" horiz-adv-x="596" 
d="M345 0v177q-29 -13 -58 -18.5t-68 -5.5q-81 0 -129.5 44.5t-48.5 129.5v198h160v-177q0 -37 17 -55.5t53 -18.5q19 0 38.5 3.5t35.5 11.5v236h160v-525h-160zM426 -129v129h-100v139h243v-268h-143z" />
    <glyph glyph-name="uni04B8" unicode="&#x4b8;" horiz-adv-x="692" 
d="M464 0v265q-6 -2 -24 -9.5t-49.5 -14t-75.5 -6.5q-128 0 -192.5 56.5t-64.5 180.5v238h160v-219q0 -55 29 -82t106 -27q29 0 58.5 6.5t52.5 16.5v305h160v-710h-160zM381 149h-67v346h67v-346z" />
    <glyph glyph-name="uni04B9" unicode="&#x4b9;" horiz-adv-x="590" 
d="M373 0v177q-29 -13 -58 -18.5t-68 -5.5q-93 0 -149.5 44.5t-56.5 129.5v198h160v-177q0 -37 21.5 -55.5t76.5 -18.5q20 0 39.5 3.5t34.5 11.5v236h161v-525h-161zM322 77h-60v298h60v-298z" />
    <glyph glyph-name="uni04BA" unicode="&#x4ba;" horiz-adv-x="692" 
d="M228 710v-265q6 2 24 9.5t49.5 14t75.5 6.5q128 0 192.5 -56.5t64.5 -180.5v-238h-160v219q0 55 -29 82t-106 27q-29 0 -58.5 -6.5t-52.5 -16.5v-305h-160v710h160z" />
    <glyph glyph-name="uni04BB" unicode="&#x4bb;" horiz-adv-x="612" 
d="M561 0h-160v295q0 51 -20.5 75t-54.5 24q-18 0 -40.5 -11.5t-41.5 -32.5t-29 -49v-301h-160v730h160v-293q29 47 76.5 72.5t104.5 25.5q54 0 86.5 -18t49.5 -47.5t23 -64.5t6 -69v-336z" />
    <glyph glyph-name="uni04BC" unicode="&#x4bc;" horiz-adv-x="906" 
d="M25 457q0 32 13 61t41 59l88 -22q-19 -23 -28.5 -44.5t-9.5 -39.5q0 -27 17.5 -42t57.5 -15h182v-109h-132q-111 0 -170 41t-59 111zM534 715q81 0 145.5 -30.5t109 -81.5t67.5 -112t23 -122q0 -17 -1.5 -34.5t-3.5 -29.5h-506q4 -40 19 -70.5t39 -51.5t52.5 -31.5
t59.5 -10.5q35 0 66.5 11.5t54.5 33t32 50.5l155 -52q-26 -56 -73 -98.5t-108.5 -66t-131.5 -23.5q-81 0 -144 30.5t-107 82.5t-67 116t-23 131t23.5 130.5t68 115.5t107.5 82.5t143 30.5zM536 575q-45 0 -81 -20t-57.5 -56.5t-26.5 -84.5h338q-6 48 -28.5 84t-59.5 56.5
t-85 20.5z" />
    <glyph glyph-name="uni04BD" unicode="&#x4bd;" horiz-adv-x="694" 
d="M12 345q0 22 11.5 47t35.5 49l63 -18q-12 -16 -17.5 -32t-5.5 -30q0 -25 18.5 -41t46.5 -16h160v-91h-135q-82 0 -129.5 36.5t-47.5 95.5zM410 -10q-61 0 -109 21.5t-81.5 58.5t-52 85.5t-18.5 101.5q0 57 18 107t52 88.5t82.5 60.5t108.5 22q85 0 144.5 -38t90.5 -99.5
t31 -133.5q0 -14 -1 -27.5t-3 -23.5h-376q3 -35 22 -59t46 -36.5t54 -12.5q36 0 66.5 17t41.5 46l129 -38q-19 -41 -54.5 -72.5t-83.5 -49.5t-107 -18zM293 304h236q-3 35 -18.5 61t-39.5 40.5t-56 14.5q-31 0 -57.5 -14.5t-44 -40.5t-20.5 -61z" />
    <glyph glyph-name="uni04BE" unicode="&#x4be;" horiz-adv-x="918" 
d="M446 -136v136l140 126v-262h-140zM36 457q0 32 13 61t41 59l88 -22q-19 -23 -28 -44.5t-9 -39.5q0 -27 17.5 -42t56.5 -15h182v-109h-132q-111 0 -170 41t-59 111zM545 715q82 0 146 -30.5t108.5 -81.5t67.5 -112t23 -122q0 -17 -1.5 -34.5t-3.5 -29.5h-505
q3 -40 18.5 -70.5t39 -51.5t52.5 -31.5t59 -10.5q35 0 66.5 11.5t55 33t32.5 50.5l154 -52q-26 -56 -73 -98.5t-108.5 -66t-130.5 -23.5q-81 0 -144 30.5t-107 82.5t-67 116t-23 131t23 130.5t67.5 115.5t108 82.5t142.5 30.5zM548 575q-46 0 -81.5 -20t-57.5 -56.5
t-27 -84.5h338q-6 48 -28.5 84t-59.5 56.5t-84 20.5z" />
    <glyph glyph-name="uni04BF" unicode="&#x4bf;" horiz-adv-x="697" 
d="M336 -129v129l143 43v-172h-143zM15 345q0 22 11.5 47t35.5 49l63 -18q-12 -16 -18 -32t-6 -30q0 -25 19 -41t47 -16h160v-91h-135q-82 0 -129.5 36.5t-47.5 95.5zM412 -10q-60 0 -108 21.5t-82 58.5t-52 85.5t-18 101.5q0 57 18 107t51.5 88.5t82 60.5t109.5 22
q85 0 144.5 -38t90.5 -99.5t31 -133.5q0 -14 -1.5 -27.5t-2.5 -23.5h-376q3 -35 21.5 -59t46 -36.5t54.5 -12.5q36 0 66 17t41 46l129 -38q-19 -41 -54 -72.5t-83 -49.5t-108 -18zM295 304h237q-4 35 -19 61t-39 40.5t-56 14.5q-31 0 -57.5 -14.5t-44 -40.5t-21.5 -61z" />
    <glyph glyph-name="uni04C0" unicode="&#x4c0;" horiz-adv-x="300" 
d="M68 0v710h164v-710h-164z" />
    <glyph glyph-name="uni04C1" unicode="&#x4c1;" horiz-adv-x="1104" 
d="M17 0l273 368l-252 342h191l195 -275h46v275h164v-275h46l195 275h191l-252 -342l273 -368h-188l-217 286h-48v-286h-164v286h-48l-217 -286h-188zM552 753q-80 0 -128 42.5t-48 110.5h94q0 -31 20.5 -51.5t61.5 -20.5q40 0 59 19.5t23 52.5h95q0 -68 -48.5 -110.5
t-128.5 -42.5z" />
    <glyph glyph-name="uni04C2" unicode="&#x4c2;" horiz-adv-x="885" 
d="M15 0l180 273l-170 252h178l125 -188h33v188h164v-188h36l123 188h177l-169 -252l181 -273h-181l-131 198h-36v-198h-164v198h-34l-132 -198h-180zM443 568q-80 0 -128 42.5t-48 110.5h94q0 -31 20.5 -51.5t61.5 -20.5q40 0 59 19.5t23 52.5h95q0 -68 -48.5 -110.5
t-128.5 -42.5z" />
    <glyph glyph-name="uni04C3" unicode="&#x4c3;" horiz-adv-x="715" 
d="M455 -215q-27 0 -57 6.5t-61 19.5l37 119q13 -5 24.5 -8t22.5 -3q27 0 47 16t31 48t11 78q0 48 -18 89t-48.5 71.5t-69 47.5t-80.5 17h-48v-286h-163v710h163v-275h37h9.5h10.5l198 275h181l-239 -315q67 -27 118 -77t80.5 -115.5t29.5 -141.5q0 -88 -27.5 -150
t-76.5 -94t-112 -32z" />
    <glyph glyph-name="uni04C4" unicode="&#x4c4;" horiz-adv-x="585" 
d="M394 304q50 -22 87 -62t58 -94t21 -121q0 -74 -24 -129t-67 -84.5t-101 -29.5q-32 0 -64 8.5t-59 21.5l36 111q32 -13 56 -13q37 0 53.5 29.5t16.5 78.5q0 58 -19 97.5t-50 60t-67 20.5h-56v-198h-159v525h159v-188h27h6.5h6.5l128 188h172z" />
    <glyph glyph-name="uni04C5" unicode="&#x4c5;" horiz-adv-x="780" 
d="M512 0v566h-176l-4 -109q-5 -138 -23.5 -228t-54.5 -141t-91.5 -72.5t-132.5 -21.5v142q35 0 61 14.5t43.5 53.5t28 111.5t14.5 189.5l7 205h492v-710h-164zM551 -135l47 207l86 -72h-172v144h244l-62 -279h-143z" />
    <glyph glyph-name="uni04C6" unicode="&#x4c6;" horiz-adv-x="649" 
d="M20 -8v142q24 0 42 10t31.5 33t21.5 66t11 110l7 172h415v-525h-160v385h-113l-2 -49q-5 -100 -21.5 -166.5t-47.5 -105t-76 -55.5t-108 -17zM427 -135l47 207l86 -72h-172v139h244l-62 -274h-143z" />
    <glyph glyph-name="uni04C7" unicode="&#x4c7;" horiz-adv-x="779" 
d="M679 710v-710h-164v291h-283v-291h-164v710h164v-275h283v275h164zM498 -220q-31 0 -64.5 7.5t-68.5 23.5l37 119q15 -6 28.5 -9t25.5 -3q26 0 43 13t25.5 38t8.5 59v116h164v-144q0 -69 -25.5 -118t-70 -75.5t-103.5 -26.5z" />
    <glyph glyph-name="uni04C8" unicode="&#x4c8;" horiz-adv-x="611" 
d="M56 0v525h160v-190h179v190h160v-525h-160v203h-179v-203h-160zM362 -216q-29 0 -61.5 7t-65.5 23l37 112q13 -5 25 -7.5t22 -2.5q36 0 56 26.5t20 75.5v121h160v-139q0 -104 -54 -160t-139 -56z" />
    <glyph glyph-name="uni04C9" unicode="&#x4c9;" horiz-adv-x="842" 
d="M695 710v-710h-164v291h-283v-291h-164v710h164v-275h283v275h164zM620 -135l47 207l86 -72h-172v144h244l-62 -279h-143z" />
    <glyph glyph-name="uni04CA" unicode="&#x4ca;" horiz-adv-x="667" 
d="M68 0v525h160v-190h179v190h160v-525h-160v203h-179v-203h-160zM446 -135l47 207l86 -72h-172v139h244l-62 -274h-143z" />
    <glyph glyph-name="uni04CB" unicode="&#x4cb;" horiz-adv-x="692" 
d="M464 0v293q-6 -2 -25 -9.5t-51.5 -14t-79.5 -6.5q-125 0 -187.5 56.5t-62.5 180.5v210h160v-191q0 -55 30 -82t98 -27q31 0 62.5 6.5t55.5 16.5v277h160v-710h-160zM482 -136h-140v237h212v-101h-72v-136z" />
    <glyph glyph-name="uni04CC" unicode="&#x4cc;" horiz-adv-x="548" 
d="M257 -129v202h80v127q-28 -11 -55 -16.5t-54 -5.5q-56 0 -98 22.5t-65.5 64t-23.5 95.5v165h152v-144q0 -41 18 -62t58 -21q17 0 34.5 5t33.5 13v209h155v-525h-99v-129h-136z" />
    <glyph glyph-name="uni04CD" unicode="&#x4cd;" horiz-adv-x="911" 
d="M644 0v423l-153 -308h-90l-153 308v-423h-164v710h178l184 -371l185 371h177v-710h-164zM682 -135l47 207l86 -72h-172v144h244l-62 -279h-143z" />
    <glyph glyph-name="uni04CE" unicode="&#x4ce;" horiz-adv-x="805" 
d="M68 0v525h167l148 -281l148 281h166v-525h-152v307l-113 -215h-99l-113 215v-307h-152zM584 -135l47 207l86 -72h-172v139h244l-62 -274h-143z" />
    <glyph glyph-name="uni04CF" unicode="&#x4cf;" horiz-adv-x="270" 
d="M55 0v525h160v-525h-160z" />
    <glyph glyph-name="uni04D0" unicode="&#x4d0;" horiz-adv-x="670" 
d="M247 710h177l244 -710h-168l-55 159h-221l-54 -159h-168zM418 272l-83 273l-85 -273h168zM335 753q-80 0 -128 42.5t-48 110.5h94q0 -31 20.5 -51.5t61.5 -20.5q40 0 59 19.5t23 52.5h95q0 -68 -48.5 -110.5t-128.5 -42.5z" />
    <glyph glyph-name="uni04D1" unicode="&#x4d1;" horiz-adv-x="586" 
d="M22 157q0 52 29 91t80 61.5t117 22.5q32 0 63 -5.5t54 -15.5v23q0 43 -26 66t-79 23q-44 0 -82.5 -15t-81.5 -43l-48 102q52 34 108.5 51t119.5 17q118 0 183.5 -56.5t65.5 -163.5v-137q0 -24 7.5 -33.5t26.5 -11.5v-133q-20 -4 -37.5 -6t-30.5 -2q-45 0 -68.5 18
t-29.5 49l-3 23q-35 -45 -83.5 -68.5t-101.5 -23.5q-52 0 -93.5 22t-65.5 60t-24 85zM340 137q11 9 18 20t7 21v47q-20 8 -44.5 12.5t-45.5 4.5q-44 0 -73 -19.5t-29 -51.5q0 -18 10 -33t27.5 -24t41.5 -9t48 9t40 23zM293 568q-80 0 -128 42.5t-48 110.5h94
q0 -31 20.5 -51.5t61.5 -20.5q40 0 59 19.5t23 52.5h95q0 -68 -48.5 -110.5t-128.5 -42.5z" />
    <glyph glyph-name="uni04D2" unicode="&#x4d2;" horiz-adv-x="670" 
d="M247 710h177l244 -710h-168l-55 159h-221l-54 -159h-168zM418 272l-83 273l-85 -273h168zM165 779v129h132v-129h-132zM375 779v129h132v-129h-132z" />
    <glyph glyph-name="uni04D3" unicode="&#x4d3;" horiz-adv-x="586" 
d="M22 157q0 52 29 91t80 61.5t117 22.5q32 0 63 -5.5t54 -15.5v23q0 43 -26 66t-79 23q-44 0 -82.5 -15t-81.5 -43l-48 102q52 34 108.5 51t119.5 17q118 0 183.5 -56.5t65.5 -163.5v-137q0 -24 7.5 -33.5t26.5 -11.5v-133q-20 -4 -37.5 -6t-30.5 -2q-45 0 -68.5 18
t-29.5 49l-3 23q-35 -45 -83.5 -68.5t-101.5 -23.5q-52 0 -93.5 22t-65.5 60t-24 85zM340 137q11 9 18 20t7 21v47q-20 8 -44.5 12.5t-45.5 4.5q-44 0 -73 -19.5t-29 -51.5q0 -18 10 -33t27.5 -24t41.5 -9t48 9t40 23zM122 594v129h132v-129h-132zM332 594v129h132v-129
h-132z" />
    <glyph glyph-name="uni04D4" unicode="&#x4d4;" horiz-adv-x="968" 
d="M412 710h515v-144h-309v-133h255v-143h-255v-146h318v-144h-481v159h-215l-91 -159h-175zM442 303v224l-133 -224h133z" />
    <glyph glyph-name="uni04D5" unicode="&#x4d5;" horiz-adv-x="939" 
d="M203 -10q-51 0 -92 22t-65 60t-24 85q0 52 29 91t79.5 61.5t116.5 22.5q32 0 61 -5.5t52 -14.5q0 7 1 15t3 15q-3 41 -28 62t-76 21q-43 0 -82 -14.5t-82 -43.5l-47 100q103 68 227 68q60 0 106 -16.5t77 -47.5q34 29 79.5 46.5t101.5 17.5q90 0 152.5 -38t96 -99.5
t33.5 -135.5q0 -12 -1.5 -25.5t-3.5 -23.5h-390q2 -35 19.5 -59t44 -36.5t55.5 -12.5q36 0 68 17t43 46l136 -38q-20 -41 -56 -72.5t-85.5 -49.5t-110.5 -18q-76 0 -134.5 29t-93.5 76q-25 -37 -60.5 -60t-74.5 -34t-75 -11zM250 105q26 0 51 9t41 24q22 17 23 37
q-2 12 -3.5 26t-1.5 27q-20 7 -43 11t-43 4q-43 0 -72 -20t-29 -52q0 -18 10 -33t27.5 -24t39.5 -9zM753 310q-3 34 -18.5 58t-40 38t-56.5 14q-31 0 -56 -14t-40 -38t-18 -58h229z" />
    <glyph glyph-name="uni04D6" unicode="&#x4d6;" horiz-adv-x="599" 
d="M567 144v-144h-499v710h490v-144h-326v-138h280v-133h-280v-151h335zM321 753q-80 0 -128 42.5t-48 110.5h94q0 -31 20.5 -51.5t61.5 -20.5q40 0 59 19.5t23 52.5h95q0 -68 -48.5 -110.5t-128.5 -42.5z" />
    <glyph glyph-name="uni04D7" unicode="&#x4d7;" horiz-adv-x="604" 
d="M306 -10q-67 0 -119 21.5t-88.5 58.5t-55.5 85.5t-19 101.5q0 76 33.5 138.5t96.5 101t152 38.5t151.5 -38t95.5 -99.5t33 -133.5q0 -14 -1.5 -27.5t-2.5 -23.5h-388q3 -35 19.5 -59t42.5 -36.5t55 -12.5q36 0 67.5 17t43.5 46l136 -38q-20 -41 -56.5 -72.5t-86 -49.5
t-109.5 -18zM190 311h228q-4 33 -19 57.5t-40 38t-55 13.5q-31 0 -55.5 -13.5t-39.5 -38t-19 -57.5zM304 568q-80 0 -128 42.5t-48 110.5h94q0 -31 20.5 -51.5t61.5 -20.5q40 0 59 19.5t23 52.5h95q0 -68 -48.5 -110.5t-128.5 -42.5z" />
    <glyph glyph-name="uni04D8" unicode="&#x4d8;" horiz-adv-x="752" 
d="M372 -5q-84 0 -149.5 30.5t-111.5 81.5t-70.5 112t-24.5 122q0 17 2 34.5t4 29.5h523q-4 40 -19.5 70.5t-39 51.5t-53 31.5t-61.5 10.5q-34 0 -65 -11.5t-53.5 -33t-31.5 -50.5l-169 52q27 57 73.5 99t109 65.5t137.5 23.5q81 0 146 -30.5t111 -81.5t70 -113.5t24 -126.5
q0 -69 -23.5 -135t-69.5 -118t-111 -83t-148 -31zM374 139q46 0 81.5 17.5t58.5 50t28 75.5h-345q6 -43 30 -75.5t62 -50t85 -17.5z" />
    <glyph glyph-name="uni04D9" unicode="&#x4d9;" horiz-adv-x="604" 
d="M299 -10q-89 0 -152 37.5t-96 100t-33 134.5q0 12 1 26t3 24h388q-3 35 -19.5 59t-42.5 36t-55 12q-36 0 -67.5 -17t-43.5 -46l-136 39q21 41 57 72.5t85.5 49.5t109.5 18q67 0 119 -21.5t88 -59t55.5 -86t19.5 -102.5q0 -75 -33 -137.5t-95.5 -100.5t-152.5 -38z
M301 105q31 0 55 13.5t39 38.5t18 57h-226q3 -33 18.5 -57.5t40.5 -38t55 -13.5z" />
    <glyph glyph-name="uni04DA" unicode="&#x4da;" horiz-adv-x="752" 
d="M372 -5q-84 0 -149.5 30.5t-111.5 81.5t-70.5 112t-24.5 122q0 17 2 34.5t4 29.5h523q-4 40 -19.5 70.5t-39 51.5t-53 31.5t-61.5 10.5q-34 0 -65 -11.5t-53.5 -33t-31.5 -50.5l-169 52q27 57 73.5 99t109 65.5t137.5 23.5q81 0 146 -30.5t111 -81.5t70 -113.5t24 -126.5
q0 -69 -23.5 -135t-69.5 -118t-111 -83t-148 -31zM374 139q46 0 81.5 17.5t58.5 50t28 75.5h-345q6 -43 30 -75.5t62 -50t85 -17.5zM205 779v129h132v-129h-132zM415 779v129h132v-129h-132z" />
    <glyph glyph-name="uni04DB" unicode="&#x4db;" horiz-adv-x="604" 
d="M299 -10q-89 0 -152 37.5t-96 100t-33 134.5q0 12 1 26t3 24h388q-3 35 -19.5 59t-42.5 36t-55 12q-36 0 -67.5 -17t-43.5 -46l-136 39q21 41 57 72.5t85.5 49.5t109.5 18q67 0 119 -21.5t88 -59t55.5 -86t19.5 -102.5q0 -75 -33 -137.5t-95.5 -100.5t-152.5 -38z
M301 105q31 0 55 13.5t39 38.5t18 57h-226q3 -33 18.5 -57.5t40.5 -38t55 -13.5zM131 594v129h132v-129h-132zM341 594v129h132v-129h-132z" />
    <glyph glyph-name="uni04DC" unicode="&#x4dc;" horiz-adv-x="1104" 
d="M17 0l273 368l-252 342h191l195 -275h46v275h164v-275h46l195 275h191l-252 -342l273 -368h-188l-217 286h-48v-286h-164v286h-48l-217 -286h-188zM382 779v129h132v-129h-132zM592 779v129h132v-129h-132z" />
    <glyph glyph-name="uni04DD" unicode="&#x4dd;" horiz-adv-x="885" 
d="M15 0l180 273l-170 252h178l125 -188h33v188h164v-188h36l123 188h177l-169 -252l181 -273h-181l-131 198h-36v-198h-164v198h-34l-132 -198h-180zM272 594v129h132v-129h-132zM482 594v129h132v-129h-132z" />
    <glyph glyph-name="uni04DE" unicode="&#x4de;" horiz-adv-x="629" 
d="M317 -7q-92 0 -165.5 37t-116.5 103l123 76q24 -37 63.5 -58.5t91.5 -21.5q59 0 86 24t27 61q0 25 -11.5 44t-36 29.5t-62.5 10.5h-91v123h92q31 0 51 9.5t29.5 26t9.5 38.5t-10.5 38.5t-32.5 26t-57 9.5q-56 0 -95 -21t-59 -54l-119 84q45 62 111.5 99.5t168.5 37.5
q79 0 135 -22t86.5 -65.5t30.5 -107.5q0 -46 -22.5 -88.5t-74.5 -66.5q59 -17 91 -62t32 -105q0 -67 -36 -112.5t-98 -69t-141 -23.5zM146 779v129h132v-129h-132zM356 779v129h132v-129h-132z" />
    <glyph glyph-name="uni04DF" unicode="&#x4df;" horiz-adv-x="511" 
d="M257 -9q-90 0 -148 31t-91 85l128 58q16 -22 40 -34.5t62 -12.5q41 0 62 14.5t21 38.5q0 22 -18 35t-55 14h-55v97h56q17 0 29 5.5t18 16t6 23.5q0 21 -16.5 33t-52.5 12q-32 0 -52 -11t-34 -33l-120 64q30 51 85 79t129 28q57 0 103 -16.5t72.5 -50t26.5 -82.5
q0 -33 -16.5 -65t-55.5 -46q49 -14 73.5 -48t24.5 -80q0 -50 -29 -85t-79 -52.5t-114 -17.5zM79 594v129h132v-129h-132zM289 594v129h132v-129h-132z" />
    <glyph glyph-name="uni04E0" unicode="&#x4e0;" horiz-adv-x="628" 
d="M314 444q82 0 135.5 -18.5t84.5 -49t44 -68t13 -75.5q0 -74 -35 -127.5t-97 -83t-142 -29.5q-94 0 -168.5 37t-117.5 103l123 76q24 -37 64.5 -58.5t92.5 -21.5q40 0 65 13.5t37 36.5t12 54q0 45 -27.5 73.5t-91.5 28.5h-84v109h92zM222 444l135 122h-276v144h476v-123
l-271 -234z" />
    <glyph glyph-name="uni04E1" unicode="&#x4e1;" horiz-adv-x="524" 
d="M230 -222q-81 0 -146 31.5t-109 93.5l88 91q32 -41 70 -64.5t86 -23.5q40 0 70 13t47.5 38t17.5 60q0 54 -41.5 83t-110.5 29h-73v108l158 159h-271v129h459v-102l-198 -189l8 -1q104 -13 160.5 -69.5t56.5 -145.5q0 -61 -22.5 -106t-61.5 -75t-87.5 -44.5t-100.5 -14.5z
" />
    <glyph glyph-name="uni04E2" unicode="&#x4e2;" horiz-adv-x="768" 
d="M72 0v710h164v-477l306 477h153v-710h-164v474l-302 -474h-157zM233 806v97h304v-97h-304z" />
    <glyph glyph-name="uni04E3" unicode="&#x4e3;" horiz-adv-x="620" 
d="M56 0v525h160v-312l203 312h146v-525h-160v303l-202 -303h-147zM160 621v97h304v-97h-304z" />
    <glyph glyph-name="uni04E4" unicode="&#x4e4;" horiz-adv-x="768" 
d="M72 0v710h164v-477l306 477h153v-710h-164v474l-302 -474h-157zM214 779v129h132v-129h-132zM424 779v129h132v-129h-132z" />
    <glyph glyph-name="uni04E5" unicode="&#x4e5;" horiz-adv-x="620" 
d="M56 0v525h160v-312l203 312h146v-525h-160v303l-202 -303h-147zM140 594v129h132v-129h-132zM350 594v129h132v-129h-132z" />
    <glyph glyph-name="uni04E6" unicode="&#x4e6;" horiz-adv-x="760" 
d="M379 -6q-80 0 -144.5 30.5t-111 82t-71.5 116t-25 133.5q0 71 26.5 135t74 114.5t112.5 79.5t142 29q79 0 143.5 -30.5t111 -82.5t71.5 -116.5t25 -131.5q0 -71 -26 -135t-74 -114.5t-112.5 -80t-141.5 -29.5zM194 354q0 -41 12 -79.5t35.5 -68.5t58.5 -48t80 -18
q47 0 82 18.5t58 49.5t34.5 69.5t11.5 78.5q0 41 -12 79t-36 68.5t-59 47.5t-79 17q-47 0 -81.5 -18t-58 -48.5t-35 -69t-11.5 -78.5zM211 779v129h132v-129h-132zM421 779v129h132v-129h-132z" />
    <glyph glyph-name="uni04E7" unicode="&#x4e7;" horiz-adv-x="610" 
d="M305 -10q-67 0 -119.5 22t-88.5 60t-54.5 87t-18.5 103q0 55 18.5 104t54.5 87t88.5 60t119.5 22t119 -22t88 -60t55 -87t19 -104q0 -54 -19 -103t-55 -87t-88 -60t-119 -22zM188 262q0 -41 15.5 -72t41.5 -48t60 -17q33 0 59.5 17.5t41.5 48.5t15 71q0 41 -15 72
t-41.5 48t-59.5 17q-34 0 -60 -17t-41.5 -48t-15.5 -72zM134 594v129h132v-129h-132zM344 594v129h132v-129h-132z" />
    <glyph glyph-name="uni04E8" unicode="&#x4e8;" horiz-adv-x="764" 
d="M126 315v90h506v-90h-506zM379 -6q-80 0 -144.5 30.5t-111 82t-71.5 116t-25 133.5q0 71 26.5 135t74 114.5t112.5 79.5t142 29q79 0 143.5 -30.5t110.5 -82.5t71.5 -116.5t25.5 -131.5q0 -71 -26.5 -135t-74 -114.5t-112 -80t-141.5 -29.5zM194 354q0 -41 12 -79.5
t35.5 -68.5t58.5 -48t80 -18q47 0 82 18.5t58 49.5t34.5 69.5t11.5 78.5q0 41 -12 79t-36 68.5t-59 47.5t-79 17q-47 0 -81.5 -18t-58 -48.5t-35 -69t-11.5 -78.5z" />
    <glyph glyph-name="uni04E9" unicode="&#x4e9;" horiz-adv-x="609" 
d="M125 232v65h397v-65h-397zM305 -10q-67 0 -119.5 22t-88.5 60t-54.5 87t-18.5 103q0 55 18.5 104t54.5 87t88.5 60t119.5 22t119 -22t88 -60t55 -87t19 -104q0 -54 -19 -103t-55 -87t-88 -60t-119 -22zM188 262q0 -41 15.5 -72t41.5 -48t60 -17q33 0 59.5 17.5t41.5 48.5
t15 71q0 41 -15 72t-41.5 48t-59.5 17q-34 0 -60 -17t-41.5 -48t-15.5 -72z" />
    <glyph glyph-name="uni04EA" unicode="&#x4ea;" horiz-adv-x="764" 
d="M126 315v90h506v-90h-506zM379 -6q-80 0 -144.5 30.5t-111 82t-71.5 116t-25 133.5q0 71 26.5 135t74 114.5t112.5 79.5t142 29q79 0 143.5 -30.5t110.5 -82.5t71.5 -116.5t25.5 -131.5q0 -71 -26.5 -135t-74 -114.5t-112 -80t-141.5 -29.5zM194 354q0 -41 12 -79.5
t35.5 -68.5t58.5 -48t80 -18q47 0 82 18.5t58 49.5t34.5 69.5t11.5 78.5q0 41 -12 79t-36 68.5t-59 47.5t-79 17q-47 0 -81.5 -18t-58 -48.5t-35 -69t-11.5 -78.5zM211 779v129h132v-129h-132zM421 779v129h132v-129h-132z" />
    <glyph glyph-name="uni04EB" unicode="&#x4eb;" horiz-adv-x="609" 
d="M125 232v65h397v-65h-397zM305 -10q-67 0 -119.5 22t-88.5 60t-54.5 87t-18.5 103q0 55 18.5 104t54.5 87t88.5 60t119.5 22t119 -22t88 -60t55 -87t19 -104q0 -54 -19 -103t-55 -87t-88 -60t-119 -22zM188 262q0 -41 15.5 -72t41.5 -48t60 -17q33 0 59.5 17.5t41.5 48.5
t15 71q0 41 -15 72t-41.5 48t-59.5 17q-34 0 -60 -17t-41.5 -48t-15.5 -72zM134 594v129h132v-129h-132zM344 594v129h132v-129h-132z" />
    <glyph glyph-name="uni04EC" unicode="&#x4ec;" horiz-adv-x="711" 
d="M327 -6q-72 0 -128 20.5t-97 58t-71 85.5l136 80q16 -30 39 -52t54 -34t68 -12q46 0 80.5 16t58.5 45t36 66.5t13 80.5l65 -44h-310v117h307l-63 -42q-2 39 -15 73t-36.5 60t-57.5 41t-78 15q-37 0 -68 -12t-54 -34t-38 -53l-129 91q45 68 114 111t177 43q84 0 150 -30
t111 -80.5t69 -115t24 -135.5q0 -72 -25 -137t-72 -115t-112.5 -78.5t-147.5 -28.5zM191 779v129h132v-129h-132zM401 779v129h132v-129h-132z" />
    <glyph glyph-name="uni04ED" unicode="&#x4ed;" horiz-adv-x="585" 
d="M280 -10q-55 0 -102.5 16t-83.5 45.5t-59 70.5l127 59q19 -31 45.5 -47.5t64.5 -16.5q31 0 56 12t43 34t25 50h-161v102h160q-8 27 -25 47.5t-42 32.5t-56 12q-38 0 -64.5 -14t-45.5 -46l-120 64q33 58 94 91t144 33q69 0 121 -22.5t88 -60.5t54 -87t18 -102t-18.5 -102
t-54.5 -87.5t-88 -61t-120 -22.5zM123 594v129h132v-129h-132zM333 594v129h132v-129h-132z" />
    <glyph glyph-name="uni04EE" unicode="&#x4ee;" horiz-adv-x="648" 
d="M132 -6v135h63q26 0 40 10.5t22 33.5l9 24l-273 513h181l165 -347l146 347h173l-277 -614q-29 -57 -66.5 -79.5t-99.5 -22.5h-83zM183 806v97h304v-97h-304z" />
    <glyph glyph-name="uni04EF" unicode="&#x4ef;" horiz-adv-x="552" 
d="M140 -230q-22 0 -46.5 5t-57.5 15l23 132q19 -7 35.5 -11t29.5 -4q26 0 44 15.5t27 47.5l9 31l-202 524h165l122 -361l104 361h151l-197 -594q-16 -50 -47 -85.5t-72 -55.5t-88 -20zM125 621v97h304v-97h-304z" />
    <glyph glyph-name="uni04F0" unicode="&#x4f0;" horiz-adv-x="648" 
d="M132 -6v135h63q26 0 40 10.5t22 33.5l9 24l-273 513h181l165 -347l146 347h173l-277 -614q-29 -57 -66.5 -79.5t-99.5 -22.5h-83zM163 779v129h132v-129h-132zM373 779v129h132v-129h-132z" />
    <glyph glyph-name="uni04F1" unicode="&#x4f1;" horiz-adv-x="552" 
d="M140 -230q-22 0 -46.5 5t-57.5 15l23 132q19 -7 35.5 -11t29.5 -4q26 0 44 15.5t27 47.5l9 31l-202 524h165l122 -361l104 361h151l-197 -594q-16 -50 -47 -85.5t-72 -55.5t-88 -20zM105 594v129h132v-129h-132zM315 594v129h132v-129h-132z" />
    <glyph glyph-name="uni04F2" unicode="&#x4f2;" horiz-adv-x="648" 
d="M132 -6v135h63q26 0 40 10.5t22 33.5l9 24l-273 513h181l165 -347l146 347h173l-277 -614q-29 -57 -66.5 -79.5t-99.5 -22.5h-83zM270 758l-77 28l45 130h120zM445 758l-77 28l44 130h120z" />
    <glyph glyph-name="uni04F3" unicode="&#x4f3;" horiz-adv-x="552" 
d="M140 -230q-22 0 -46.5 5t-57.5 15l23 132q19 -7 35.5 -11t29.5 -4q26 0 44 15.5t27 47.5l9 31l-202 524h165l122 -361l104 361h151l-197 -594q-16 -50 -47 -85.5t-72 -55.5t-88 -20zM213 573l-77 28l45 130h120zM388 573l-77 28l44 130h120z" />
    <glyph glyph-name="uni04F4" unicode="&#x4f4;" horiz-adv-x="692" 
d="M464 0v265q-6 -2 -24 -9.5t-49.5 -14t-75.5 -6.5q-128 0 -192.5 56.5t-64.5 180.5v238h160v-219q0 -55 29 -82t106 -27q29 0 58.5 6.5t52.5 16.5v305h160v-710h-160zM183 779v129h132v-129h-132zM393 779v129h132v-129h-132z" />
    <glyph glyph-name="uni04F5" unicode="&#x4f5;" horiz-adv-x="562" 
d="M345 0v177q-29 -13 -58 -18.5t-68 -5.5q-81 0 -129.5 44.5t-48.5 129.5v198h160v-177q0 -37 17 -55.5t53 -18.5q19 0 38.5 3.5t35.5 11.5v236h160v-525h-160zM105 594v129h132v-129h-132zM315 594v129h132v-129h-132z" />
    <glyph glyph-name="uni04F6" unicode="&#x4f6;" horiz-adv-x="544" 
d="M71 0v710h448v-144h-284v-566h-164zM226 -136v136h-114v144h254v-280h-140z" />
    <glyph glyph-name="uni04F7" unicode="&#x4f7;" horiz-adv-x="431" 
d="M56 0v525h361v-140h-201v-385h-160zM159 -129v129h-100v139h243v-268h-143z" />
    <glyph glyph-name="uni04F8" unicode="&#x4f8;" horiz-adv-x="946" 
d="M68 0v710h164v-245h132q79 0 135 -28t86 -80t30 -123q0 -70 -28.5 -123t-83 -82t-130.5 -29h-305zM232 134h118q34 0 55.5 13t32 36t10.5 51q0 26 -10.5 48t-32 35.5t-56.5 13.5h-117v-197zM714 0v710h164v-710h-164zM303 779v129h132v-129h-132zM513 779v129h132v-129
h-132z" />
    </font>
</defs>
</svg>
